<?xml version="1.0" standalone="no"?>
<!DOCTYPE svg PUBLIC "-//W3C//DTD SVG 1.1//EN" "http://www.w3.org/Graphics/SVG/1.1/DTD/svg11.dtd" >
<svg xmlns="http://www.w3.org/2000/svg">
<metadata>
This is a custom SVG webfont generated by Font Squirrel.
Copyright   : Copyright 2009 2010 2011 by Daniel Johnson  Released under the terms of the Open Font License
</metadata>
<defs>
<font id="JuraDemiBold" horiz-adv-x="1340" >
<font-face units-per-em="2048" ascent="1638" descent="-410" />
<missing-glyph horiz-adv-x="520" />
<glyph unicode=" "  horiz-adv-x="520" />
<glyph unicode="&#x09;" horiz-adv-x="520" />
<glyph unicode="&#xa0;" horiz-adv-x="520" />
<glyph unicode="!" horiz-adv-x="520" d="M138 58q0 44 41 73t81 29t82 -28t42 -74q0 -44 -40 -73t-84 -29q-40 0 -81 29t-41 73zM188 394v838q0 46 22 66t50 20t50 -20t22 -66v-838q0 -86 -74 -86q-70 0 -70 86z" />
<glyph unicode="&#x22;" horiz-adv-x="628" d="M142 932v298q0 46 22 66t50 20q70 0 70 -86v-298q0 -46 -22 -66t-50 -20q-70 0 -70 86zM344 932v298q0 46 22 66t50 20t50 -20t22 -66v-298q0 -86 -74 -86q-70 0 -70 86z" />
<glyph unicode="#" horiz-adv-x="1244" d="M86 452q0 28 20 50t66 22h156l82 224h-178q-84 0 -84 74q0 28 19 49t65 21h230l118 328q20 60 72 60q32 0 52 -20t20 -50q0 -24 -6 -40l-106 -278h206l118 328q24 60 74 60q32 0 52 -22t20 -50q0 -16 -6 -40l-104 -276h98q46 0 66 -22t20 -50t-20 -50t-66 -22h-150 l-82 -224h170q86 0 86 -74q0 -70 -86 -70h-222l-118 -328q-28 -60 -74 -60q-32 0 -52 20t-20 52q0 16 6 40l106 276h-206l-118 -328q-28 -60 -74 -60q-30 0 -50 19t-20 51q0 16 6 40l104 278h-104q-46 0 -66 22t-20 50zM480 524h204l82 224h-204z" />
<glyph unicode="$" horiz-adv-x="1256" d="M122 406q0 86 72 86t72 -82q0 -62 19 -80t71 -18h212v270h-166q-152 0 -216 78t-64 196q0 258 280 258h166v90q0 82 68 82q76 0 76 -80v-92h202q130 0 175 -63t45 -169q0 -88 -72 -88t-72 84q0 58 -18 75t-72 17h-188v-244h148q274 0 274 -286q0 -272 -278 -272h-144 v-100q0 -82 -78 -82q-66 0 -66 78v104h-226q-130 0 -175 65t-45 173zM266 868q0 -68 28 -105t70 -37h204v244h-204q-52 0 -75 -21t-23 -81zM712 312h180q54 0 76 28t22 88q0 70 -28 112t-70 42h-180v-270z" />
<glyph unicode="%" horiz-adv-x="1194" d="M134 272q0 32 32 64l762 692q32 28 60 28q24 0 47 -20t23 -50q0 -32 -30 -62l-762 -694q-30 -28 -62 -28q-24 0 -47 20t-23 50zM158 922q0 72 54 123t132 51q82 0 143 -51t61 -123q0 -76 -61 -130t-143 -54q-78 0 -132 54t-54 130zM304 922q0 -16 13 -28t27 -12 q12 0 26 12t14 28q0 12 -14 21t-26 9q-16 0 -28 -9t-12 -21zM644 366q0 76 62 130t144 54q76 0 130 -54t54 -130t-54 -130t-130 -54q-82 0 -144 54t-62 130zM810 366q0 -16 12 -28t28 -12t28 12t12 28q0 40 -40 40q-16 0 -28 -12t-12 -28z" />
<glyph unicode="&#x26;" horiz-adv-x="1068" d="M82 364q0 226 160 354q-110 118 -110 234q0 162 119 267t257 105q88 0 164 -59t110 -120t34 -89t-20 -49t-52 -21q-30 0 -56 30t-44 67t-53 67t-83 30q-88 0 -158 -62t-70 -166q0 -64 72 -146l452 -522q42 72 42 170q0 92 74 92q68 0 68 -92q0 -158 -86 -286l84 -92 q18 -20 18 -54t-22 -50t-42 -16q-40 0 -76 40l-58 66q-130 -110 -286 -110q-72 0 -144 22t-140 68t-111 130t-43 192zM226 364q0 -100 52 -164t113 -84t129 -20q104 0 194 76l-380 438q-108 -78 -108 -246z" />
<glyph unicode="'" horiz-adv-x="424" d="M142 932v298q0 46 22 66t50 20q70 0 70 -86v-298q0 -46 -22 -66t-50 -20q-70 0 -70 86z" />
<glyph unicode="(" horiz-adv-x="542" d="M146 266v740q0 92 9 158t31 107t43 65t62 35t70 13t85 2v-144q-64 0 -88 -2t-44 -29t-22 -67t-2 -138v-740q0 -66 1 -99t8 -64t13 -42t28 -20t42 -10t64 -1v-144q-56 0 -85 2t-70 13t-62 35t-43 65t-31 107t-9 158z" />
<glyph unicode=")" horiz-adv-x="542" d="M96 30q44 0 64 1t42 10t28 20t13 42t8 64t1 99v740q0 98 -2 138t-22 67t-44 29t-88 2v144q56 0 85 -2t70 -13t62 -35t43 -65t31 -107t9 -158v-740q0 -92 -9 -158t-31 -107t-43 -65t-62 -35t-70 -13t-85 -2v144z" />
<glyph unicode="*" horiz-adv-x="830" d="M128 858q0 42 44 68l98 58l-96 54q-46 24 -46 68q0 10 5 25t22 30t41 15h8q4 0 8 -1t8 -3t11 -5t13 -6t17 -9l21 -11q10 -5 27 -15t33 -18v108q0 86 74 86q70 0 70 -86v-108q131 67 146 68q30 0 50 -22t20 -48q0 -38 -46 -68l-96 -54l96 -58q46 -30 46 -68q0 -18 -18 -44 t-52 -26h-8q-4 0 -8 1t-8 3t-11 5t-13 6t-17 9l-21 11q-10 5 -27 15t-33 18v-108q0 -46 -22 -66t-50 -20t-50 20t-22 66v108q-131 -67 -146 -68q-28 0 -48 22t-20 48z" />
<glyph unicode="+" horiz-adv-x="1062" d="M68 462q0 26 19 49t63 23h308v346q0 86 74 86q70 0 70 -86v-346h304q88 0 88 -76q0 -32 -25 -51t-63 -19h-304v-348q0 -84 -72 -84t-72 84v348h-308q-82 0 -82 74z" />
<glyph unicode="," horiz-adv-x="452" d="M94 -120l6 36l48 174q18 62 70 62q14 0 35 -4t44 -21t23 -45q0 -18 -14 -46l-80 -166q-26 -60 -68 -60q-64 0 -64 70z" />
<glyph unicode="-" horiz-adv-x="952" d="M146 462q0 26 19 49t63 23h490q88 0 88 -76q0 -32 -25 -51t-63 -19h-490q-82 0 -82 74z" />
<glyph unicode="." horiz-adv-x="500" d="M128 58q0 44 41 73t81 29t81 -29t41 -73t-41 -73t-81 -29q-44 0 -83 29t-39 73z" />
<glyph unicode="/" horiz-adv-x="750" d="M82 22q0 26 22 84l420 1156q26 58 70 58q24 0 49 -16t25 -52q0 -28 -18 -72l-424 -1168q-24 -58 -72 -58q-22 0 -47 16t-25 52z" />
<glyph unicode="0" horiz-adv-x="1312" d="M152 316v640q0 144 109 235t279 91h232q170 0 279 -91t109 -235v-640q0 -144 -109 -235t-279 -91h-232q-170 0 -279 91t-109 235zM296 288q0 -54 63 -104t159 -50h276q96 0 159 50t63 104v694q0 54 -63 104t-159 50h-276q-96 0 -159 -50t-63 -104v-694z" />
<glyph unicode="1" horiz-adv-x="552" d="M76 1152q0 34 36 68l122 120q34 30 68 30q24 0 49 -19t25 -57v-1228q0 -80 -72 -80t-72 80v1072l-16 -14q-34 -32 -72 -32q-36 0 -52 20t-16 40z" />
<glyph unicode="2" horiz-adv-x="1258" d="M128 -10v114q0 140 89 249t216 175t253 121t215 119t89 140q0 150 -66 190t-258 40h-306q-52 0 -70 -20t-18 -80q0 -90 -74 -90q-70 0 -70 90q0 132 52 188t166 56h320q242 0 355 -76t113 -294q0 -100 -85 -180t-208 -139l-248 -119q-125 -60 -218 -147t-103 -193h772 q90 0 90 -74q0 -70 -90 -70h-916z" />
<glyph unicode="3" horiz-adv-x="1272" d="M124 232q0 92 72 92t72 -86q0 -40 82 -72t186 -32h184q156 0 213 53t57 157q0 90 -127 162t-245 72q-106 0 -106 74q0 72 106 72q130 0 251 60t121 148q0 102 -57 154t-213 52h-184q-102 0 -185 -32t-83 -72q0 -86 -72 -86t-72 90q0 100 108 172t290 72h172 q240 0 339 -89t99 -299q0 -66 -72 -134t-154 -108q80 -42 153 -124t73 -150q0 -210 -99 -299t-339 -89h-172q-182 0 -290 72t-108 170z" />
<glyph unicode="4" horiz-adv-x="1154" d="M68 320v150l672 812h168v-818h92q84 0 84 -72t-84 -72h-92v-256q0 -78 -72 -78q-34 0 -57 20t-23 58v256h-688zM232 464h524v636z" />
<glyph unicode="5" horiz-adv-x="1216" d="M126 210q0 30 22 51t46 21q16 0 72 -39t148 -78t196 -39q180 0 270 89t90 251q0 148 -97 218t-207 70h-528l18 262q10 148 68 207t184 59h538q84 0 84 -74q0 -28 -19 -49t-65 -21h-554q-42 0 -62 -19t-26 -73l-12 -148h356q186 0 326 -117t140 -315q0 -226 -139 -355 t-365 -129q-142 0 -313 74t-171 154z" />
<glyph unicode="6" horiz-adv-x="1188" d="M100 426q0 170 45 319t111 245t141 166t133 101t90 31q86 0 86 -66q0 -42 -60 -72q-100 -44 -191 -132t-145 -216q124 74 294 74q224 0 364 -125t140 -323q0 -196 -140 -321t-364 -125t-364 124t-140 320zM244 428q0 -140 94 -221t266 -81t266 81t94 221t-93 222t-267 82 t-267 -82t-93 -222z" />
<glyph unicode="7" horiz-adv-x="1080" d="M60 1048q0 130 53 187t167 57h680q72 0 72 -66q0 -16 -8 -46l-456 -1136q-26 -64 -78 -64q-30 0 -58 16t-28 50q0 20 14 48l442 1054h-564q-54 0 -73 -21t-19 -79q0 -90 -72 -90t-72 90z" />
<glyph unicode="8" horiz-adv-x="1300" d="M146 356q0 206 112 296q-112 80 -112 284q0 94 24 159t60 102t103 56t127 24t156 5h70q96 0 156 -5t126 -24t102 -56t60 -102t24 -159q0 -208 -110 -284q110 -92 110 -296q0 -114 -30 -187t-94 -112t-144 -53t-200 -14h-70q-244 0 -357 74t-113 292zM290 360 q0 -148 65 -187t261 -39h70q194 0 259 39t65 187q0 146 -65 185t-259 39h-70q-194 0 -260 -39t-66 -185zM290 932q0 -44 6 -75t14 -53t31 -36t42 -22t61 -12t75 -5t97 -1h70q66 0 98 1t75 4t61 12t40 22t30 36t14 54t6 75q0 52 -5 86t-24 58t-37 36t-64 18t-81 7t-113 1h-74 q-66 0 -95 -1t-73 -4t-61 -11t-41 -22t-32 -37t-14 -55t-6 -76z" />
<glyph unicode="9" horiz-adv-x="1190" d="M84 932q0 78 28 138t77 97t103 61t120 35t114 15t98 4q468 0 468 -350q0 -210 -66 -393t-174 -307t-248 -194t-288 -70q-82 0 -82 74q0 28 19 50t63 22q68 0 151 30t170 88t162 162t111 236q-102 -46 -286 -46q-540 0 -540 348zM228 932q0 -54 24 -93t60 -60t92 -33 t105 -15t115 -3q182 0 253 52t71 152t-73 153t-251 53q-396 0 -396 -206z" />
<glyph unicode=":" horiz-adv-x="536" d="M146 160q0 44 41 73t81 29t81 -29t41 -73t-41 -73t-81 -29q-44 0 -83 29t-39 73zM146 866q0 44 41 73t81 29t81 -29t41 -73t-41 -73t-81 -29q-44 0 -83 29t-39 73z" />
<glyph unicode=";" horiz-adv-x="542" d="M146 866q0 44 41 73t81 29t81 -29t41 -73t-41 -73t-81 -29q-44 0 -83 29t-39 73zM160 -18l6 36l48 174q18 62 70 62q14 0 35 -4t44 -21t23 -45q0 -18 -14 -46l-80 -166q-26 -60 -68 -60q-64 0 -64 70z" />
<glyph unicode="&#x3c;" horiz-adv-x="1096" d="M66 666q0 40 44 66l730 420q24 16 50 16q30 0 50 -18t20 -48q0 -24 -17 -44t-33 -28l-630 -364l630 -368q50 -30 50 -66q0 -10 -5 -26t-22 -32t-41 -16q-28 0 -54 18l-728 420q-44 28 -44 70z" />
<glyph unicode="=" horiz-adv-x="976" d="M158 562q0 26 19 49t63 23h490q88 0 88 -76q0 -32 -25 -51t-63 -19h-490q-82 0 -82 74zM158 768q0 26 19 49t63 23h490q88 0 88 -76q0 -32 -25 -51t-63 -19h-490q-82 0 -82 74z" />
<glyph unicode="&#x3e;" horiz-adv-x="1096" d="M136 232q0 36 50 66l630 368l-630 364q-16 8 -33 28t-17 44q0 30 20 48t50 18q26 0 50 -16l730 -420q44 -26 44 -66q0 -42 -44 -70l-728 -420q-26 -18 -54 -18q-24 0 -41 16t-22 32t-5 26z" />
<glyph unicode="?" horiz-adv-x="1106" d="M74 942q0 224 110 300t338 76h152q96 0 168 -31t110 -83t56 -111t18 -125q0 -140 -61 -219t-209 -121l-164 -46v-194q0 -46 -22 -66t-50 -20q-26 0 -49 20t-23 66v304l330 90q44 12 74 63t30 123q0 76 -40 141t-134 65h-186q-180 0 -241 -40t-61 -192q0 -46 -23 -66 t-49 -20q-28 0 -51 20t-23 66zM398 58q0 44 41 73t81 29t81 -29t41 -73t-41 -73t-81 -29q-44 0 -83 29t-39 73z" />
<glyph unicode="@" horiz-adv-x="1224" d="M138 482v308q0 238 121 375t325 137h58q204 0 325 -137t121 -375q0 -90 -6 -145t-32 -118t-74 -97t-137 -57t-219 -23q-156 0 -214 74t-58 240q0 164 58 238t214 74q158 0 216 -74t58 -238q0 -86 -12 -130q36 18 49 72t13 184q0 174 -76 271t-226 97h-58q-152 0 -227 -96 t-75 -272v-308q0 -176 75 -272t227 -96h268q54 0 73 22t19 82q0 86 70 86q74 0 74 -92q0 -108 -46 -175t-176 -67h-282q-204 0 -325 137t-121 375zM492 664q0 -108 22 -139t106 -31q86 0 108 31t22 139q0 106 -22 137t-108 31q-84 0 -106 -30t-22 -138z" />
<glyph unicode="A" horiz-adv-x="1220" d="M48 36q0 20 6 38l474 1198h164l474 -1198q6 -18 6 -38q0 -36 -25 -52t-47 -16q-52 0 -74 56l-138 354h-556l-138 -354q-24 -56 -74 -56q-22 0 -47 16t-25 52zM390 522h440l-222 542z" />
<glyph unicode="B" horiz-adv-x="1288" d="M168 88v1096q0 88 68 88h376q244 0 362 -69t118 -253q0 -144 -80 -218q164 -82 164 -326v-38q0 -218 -118 -293t-386 -75h-436q-68 0 -68 88zM312 144h360q220 0 290 39t70 185v32q0 146 -65 185t-259 39h-396v-480zM312 768h300q194 0 265 34t71 142q0 106 -71 140 t-265 34h-300v-350z" />
<glyph unicode="C" horiz-adv-x="1262" d="M142 368v536q0 218 114 293t356 75h318q130 0 175 -67t45 -177q0 -90 -72 -90q-28 0 -50 20t-22 66q0 60 -18 82t-72 22h-304q-194 0 -260 -40t-66 -188v-528q0 -150 70 -189t292 -39h268q54 0 72 22t18 82q0 46 22 66t50 20q72 0 72 -92q0 -110 -45 -176t-175 -66h-282 q-270 0 -388 75t-118 293z" />
<glyph unicode="D" horiz-adv-x="1318" d="M168 88v1096q0 88 68 88h472q242 0 355 -76t113 -292v-536q0 -218 -118 -293t-386 -75h-436q-68 0 -68 88zM312 144h360q222 0 291 39t69 189v528q0 148 -65 188t-259 40h-396v-984z" />
<glyph unicode="E" horiz-adv-x="1272" d="M168 88v1096q0 88 68 88h852q88 0 88 -76q0 -68 -88 -68h-776v-340h530q100 0 100 -76q0 -68 -100 -68h-530v-500h776q88 0 88 -76q0 -68 -88 -68h-852q-68 0 -68 88z" />
<glyph unicode="F" horiz-adv-x="1230" d="M168 72v1112q0 88 68 88h852q88 0 88 -76q0 -68 -88 -68h-776v-340h530q100 0 100 -76q0 -68 -100 -68h-530v-574q0 -84 -72 -84t-72 86z" />
<glyph unicode="G" horiz-adv-x="1290" d="M142 362v548q0 218 118 290t388 72h282q130 0 175 -66t45 -176q0 -92 -72 -92t-72 88q0 60 -18 81t-72 21h-268q-220 0 -291 -39t-71 -185v-536q0 -146 65 -185t261 -39h304q54 0 72 19t18 77v232h-254q-100 0 -100 70q0 74 100 74h398v-386q0 -104 -45 -167t-175 -63 h-318q-244 0 -357 74t-113 288z" />
<glyph unicode="H" horiz-adv-x="1344" d="M168 70v1130q0 86 68 86q76 0 76 -86v-442h720v442q0 86 70 86q74 0 74 -86v-1130q0 -84 -70 -84q-74 0 -74 84v544h-720v-544q0 -84 -72 -84t-72 84z" />
<glyph unicode="I" horiz-adv-x="480" d="M168 66v1138q0 82 72 82t72 -82v-1138q0 -80 -74 -80q-70 0 -70 80z" />
<glyph unicode="J" horiz-adv-x="1182" d="M66 364q0 86 76 86q32 0 51 -24t19 -62q0 -154 66 -195t266 -41q198 0 265 40t67 184v854q0 42 22 61t50 19q72 0 72 -82v-858q0 -214 -114 -288t-362 -74q-124 0 -205 14t-147 54t-96 117t-30 195z" />
<glyph unicode="K" horiz-adv-x="1120" d="M168 66v1138q0 82 72 82q28 0 50 -20t22 -66v-508l526 556q34 38 66 38q26 0 48 -19t22 -47q0 -30 -24 -58l-448 -454l580 -598q26 -30 26 -56q0 -28 -24 -48t-48 -20q-34 0 -66 38l-572 608l-86 -104v-458q0 -84 -74 -84q-70 0 -70 80z" />
<glyph unicode="L" horiz-adv-x="1108" d="M168 86v1120q0 42 22 61t50 19t50 -19t22 -61v-1062h666q86 0 86 -74q0 -70 -86 -70h-742q-68 0 -68 86z" />
<glyph unicode="M" horiz-adv-x="1386" d="M168 70v1130q0 86 68 86q44 0 76 -46l380 -532l382 532q32 46 74 46q70 0 70 -86v-1130q0 -84 -74 -84q-70 0 -70 90v970l-326 -464q-24 -24 -56 -24q-30 0 -54 24l-326 464v-970q0 -90 -72 -90t-72 84z" />
<glyph unicode="N" horiz-adv-x="1344" d="M168 70v1130q0 86 68 86q44 0 76 -46l720 -1004v958q0 92 70 92q74 0 74 -86v-1130q0 -84 -70 -84q-46 0 -56 14l-738 1034v-970q0 -78 -72 -78t-72 84z" />
<glyph unicode="O" horiz-adv-x="1264" d="M128 460v352q0 224 138 351t366 127q226 0 365 -128t139 -350v-352q0 -222 -139 -350t-365 -128q-228 0 -366 127t-138 351zM272 466q0 -164 92 -252t268 -88t268 88t92 252v340q0 162 -91 251t-269 89t-269 -89t-91 -251v-340z" />
<glyph unicode="P" horiz-adv-x="1160" d="M168 66v1128q0 88 68 88h382q240 0 357 -68t117 -250q0 -154 -99 -237t-279 -83h-402v-578q0 -80 -74 -80q-70 0 -70 80zM312 788h306q200 0 265 35t65 141q0 108 -69 141t-261 33h-306v-350z" />
<glyph unicode="Q" horiz-adv-x="1264" d="M128 460v352q0 224 138 351t366 127q226 0 365 -128t139 -350v-352q0 -184 -90 -302l56 -52q28 -28 28 -62q0 -24 -20 -46t-48 -22q-40 0 -64 22l-58 58q-124 -74 -308 -74q-228 0 -366 127t-138 351zM272 466q0 -164 92 -252t268 -88q120 0 200 40l-98 82q-36 22 -36 58 q0 28 22 50t56 22q36 0 72 -34l92 -84q52 84 52 206v340q0 162 -91 251t-269 89t-269 -89t-91 -251v-340z" />
<glyph unicode="R" horiz-adv-x="1218" d="M168 66v1138q0 88 68 88h376q244 0 362 -69t118 -253q0 -236 -216 -298q62 -76 120 -223t85 -254t27 -129q0 -32 -21 -56t-53 -24q-34 0 -51 24t-19 56q-2 34 -29 134t-96 242t-155 202h-372v-578q0 -80 -74 -80q-70 0 -70 80zM312 788h300q196 0 266 34t70 142t-72 141 t-264 33h-300v-350z" />
<glyph unicode="S" horiz-adv-x="1316" d="M122 364q0 86 76 86q32 0 51 -24t19 -62q0 -154 69 -195t287 -41h236q104 0 147 63t43 135q0 90 -36 143t-68 61l-546 102q-150 30 -214 107t-64 217q0 64 19 118t63 105t129 80t203 29h152q134 0 219 -14t155 -53t101 -115t31 -194q0 -46 -23 -66t-51 -20q-32 0 -52 24 t-20 62q0 154 -68 193t-292 39h-212q-116 0 -163 -62t-47 -132q0 -68 30 -119t74 -61l550 -98q146 -28 210 -125t64 -227q0 -140 -88 -238t-290 -98h-192q-264 0 -383 76t-119 304z" />
<glyph unicode="T" horiz-adv-x="1040" d="M52 1200q0 28 20 50t66 22h762q86 0 86 -74q0 -70 -86 -70h-296v-1062q0 -42 -27 -61t-59 -19t-56 18t-24 62v1062h-300q-46 0 -66 22t-20 50z" />
<glyph unicode="U" horiz-adv-x="1316" d="M154 460v744q0 82 72 82q28 0 50 -19t22 -61v-740q0 -164 92 -252t268 -88t268 88t92 252v740q0 80 74 80q70 0 70 -82v-744q0 -222 -139 -350t-365 -128q-228 0 -366 127t-138 351z" />
<glyph unicode="V" horiz-adv-x="1220" d="M48 1236q0 36 25 52t47 16q52 0 74 -56l418 -1040l414 1040q24 56 74 56q22 0 47 -16t25 -52q0 -20 -6 -38l-474 -1198h-164l-474 1198q-6 18 -6 38z" />
<glyph unicode="W" horiz-adv-x="1910" d="M54 1244q0 62 68 62q58 0 76 -56l328 -1058l346 1048q24 64 82 64q64 0 86 -66l348 -1046l324 1050q18 56 76 56q68 0 68 -62q0 -12 -8 -36l-388 -1200h-148l-358 1062l-356 -1062h-146l-390 1208q-8 24 -8 36z" />
<glyph unicode="X" horiz-adv-x="1210" d="M78 52q0 28 20 54l410 528l-410 530q-20 24 -20 50q0 28 15 45t29 22t26 5q38 0 68 -44l388 -512l390 512q32 44 66 44q24 0 48 -17t24 -55q0 -24 -20 -50l-410 -530l410 -528q20 -26 20 -54q0 -32 -23 -49t-49 -17q-34 0 -66 40l-390 514l-388 -514q-30 -40 -68 -40 q-26 0 -48 18t-22 48z" />
<glyph unicode="Y" horiz-adv-x="1126" d="M36 1218q0 28 22 48t48 20q34 0 66 -44l390 -512l388 512q36 44 68 44q24 0 47 -19t23 -49q0 -18 -20 -52l-428 -554v-548q0 -78 -78 -78q-76 0 -76 78v548l-430 554q-20 34 -20 52z" />
<glyph unicode="Z" horiz-adv-x="1204" d="M98 1200q0 72 92 72h916v-134l-818 -994h728q90 0 90 -74q0 -70 -90 -70h-916v128l822 1000h-732q-92 0 -92 72z" />
<glyph unicode="[" horiz-adv-x="558" d="M162 -114v1500h300v-144h-156v-1212h156v-144h-300z" />
<glyph unicode="\" horiz-adv-x="750" d="M82 1252q0 36 25 52t49 16q44 0 70 -58l420 -1156q22 -58 22 -84q0 -36 -25 -52t-47 -16q-48 0 -72 58l-424 1168q-18 44 -18 72z" />
<glyph unicode="]" horiz-adv-x="558" d="M96 30h156v1212h-156v144h300v-1500h-300v144z" />
<glyph unicode="^" horiz-adv-x="886" d="M140 766q0 20 4 32l228 504h144l226 -504q4 -12 4 -32q0 -30 -18 -48t-48 -18q-48 0 -78 54l-158 360l-162 -360q-24 -54 -76 -54q-26 0 -46 19t-20 47z" />
<glyph unicode="_" horiz-adv-x="950" d="M-30 -40q0 70 86 70h838q86 0 86 -74q0 -70 -86 -70h-838q-86 0 -86 74z" />
<glyph unicode="`" horiz-adv-x="424" d="M38 1314q0 32 21 52t49 20q32 0 66 -38l192 -230q22 -30 22 -58q0 -30 -22 -50t-48 -20q-32 0 -66 38l-192 230q-22 24 -22 56z" />
<glyph unicode="a" horiz-adv-x="1188" d="M122 258q0 204 121 278t385 74h274v84q0 50 -18 67t-72 17h-282q-156 0 -210 -17t-54 -61q0 -90 -74 -90q-70 0 -70 90q0 126 101 174t293 48h310q128 0 174 -60t46 -200v-592q0 -84 -72 -84t-72 90v24q-120 -100 -360 -100h-186q-102 0 -168 70t-66 188zM266 248 q0 -42 30 -73t60 -31h186q116 0 194 30t111 84t44 100t11 108h-274q-224 0 -293 -37t-69 -181z" />
<glyph unicode="b" d="M150 70v1124q0 92 68 92q76 0 76 -92v-372q124 100 362 100h58q268 0 386 -73t118 -283v-210q0 -210 -118 -283t-386 -73h-58q-238 0 -362 100v-24q0 -90 -72 -90t-72 84zM294 456q0 -142 80 -227t282 -85h58q222 0 291 37t69 181v198q0 144 -69 181t-291 37h-58 q-204 0 -283 -85t-79 -229v-8z" />
<glyph unicode="c" horiz-adv-x="1248" d="M122 356v210q0 210 118 283t388 73h282q130 0 175 -67t45 -177q0 -90 -72 -90q-28 0 -50 20t-22 66q0 60 -18 82t-72 22h-268q-224 0 -293 -37t-69 -181v-198q0 -144 69 -181t293 -37h268q54 0 72 22t18 82q0 46 22 66t50 20q72 0 72 -92q0 -110 -45 -176t-175 -66h-282 q-270 0 -388 73t-118 283z" />
<glyph unicode="d" d="M122 356v210q0 210 116 283t372 73h436v274q0 90 76 90q68 0 68 -90v-1126q0 -84 -72 -84t-72 90v24q-124 -100 -362 -100h-58q-268 0 -386 73t-118 283zM266 362q0 -144 69 -181t291 -37h58q204 0 283 85t79 229v320h-436q-210 0 -277 -37t-67 -181v-198z" />
<glyph unicode="e" horiz-adv-x="1302" d="M122 356v210q0 210 118 283t388 73h58q268 0 386 -73t118 -283v-96h-924v-108q0 -144 69 -181t293 -37h308q54 0 72 22t18 82q0 46 22 66t50 20q72 0 72 -92q0 -110 -45 -176t-175 -66h-322q-270 0 -388 73t-118 283zM266 614h780q-8 106 -80 135t-280 29h-58 q-216 0 -286 -30t-76 -134z" />
<glyph unicode="f" horiz-adv-x="690" d="M98 858q0 52 62 62q8 208 118 280t328 72q92 0 92 -76q0 -68 -92 -68q-170 0 -234 -36t-68 -170h256q92 0 92 -76q0 -68 -92 -68h-256v-706q0 -86 -76 -86q-68 0 -68 86v716q-62 12 -62 70z" />
<glyph unicode="g" d="M122 -166q0 90 72 90t72 -86q0 -60 18 -82t72 -22h618q46 0 59 15t13 65v186h-424q-264 0 -382 73t-118 283v210q0 210 118 283t386 73h58q238 0 362 -100v24q0 90 72 90t72 -84v-1006q0 -138 -43 -197t-159 -59h-646q-130 0 -175 67t-45 177zM266 362q0 -144 69 -181 t287 -37h424v322q0 142 -80 227t-282 85h-58q-222 0 -291 -37t-69 -181v-198z" />
<glyph unicode="h" horiz-adv-x="1358" d="M150 70v1124q0 92 68 92q76 0 76 -92v-372q124 100 362 100h58q268 0 386 -73t118 -283v-496q0 -84 -70 -84q-74 0 -74 84v490q0 144 -69 181t-291 37h-58q-202 0 -282 -87t-80 -233v-388q0 -84 -72 -84t-72 84z" />
<glyph unicode="i" horiz-adv-x="436" d="M96 1202q0 44 39 73t83 29q40 0 81 -29t41 -73t-41 -73t-81 -29t-81 29t-41 73zM146 40v840q0 46 22 66t50 20t50 -20t22 -66v-840q0 -84 -74 -84q-28 0 -49 19t-21 65z" />
<glyph unicode="j" horiz-adv-x="444" d="M-244 -276q0 70 92 70q180 0 241 36t61 170v844q0 92 74 92q70 0 70 -92v-844q0 -210 -109 -280t-337 -70q-92 0 -92 74zM100 1202q0 44 39 73t83 29q40 0 81 -29t41 -73t-41 -73t-81 -29t-81 29t-41 73z" />
<glyph unicode="k" horiz-adv-x="992" d="M150 64v1136q0 46 22 66t50 20t50 -20t22 -66v-636l392 340q32 28 64 28q26 0 48 -20t22 -48q0 -34 -32 -58l-350 -280l498 -412q28 -20 28 -60q0 -24 -20 -45t-48 -21q-30 0 -62 28l-502 446l-38 -38v-354q0 -84 -74 -84q-70 0 -70 78z" />
<glyph unicode="l" horiz-adv-x="588" d="M182 266v930q0 90 72 90t72 -90v-960q0 -54 18 -73t72 -19q90 0 90 -74q0 -70 -90 -70h-14q-126 0 -173 62t-47 204z" />
<glyph unicode="m" horiz-adv-x="1738" d="M148 70v780q0 86 68 86q76 0 76 -92v-16q94 94 248 94q134 0 224 -30t136 -112q114 142 304 142q198 0 296 -74t98 -282v-496q0 -84 -72 -84t-72 84v490q0 144 -49 181t-201 37q-122 0 -190 -82t-68 -238v-388q0 -84 -72 -84q-76 0 -76 84v490q0 142 -51 180t-207 38 q-120 0 -184 -81t-64 -239v-388q0 -84 -72 -84t-72 84z" />
<glyph unicode="n" horiz-adv-x="1356" d="M148 70v780q0 86 68 86q76 0 76 -92v-22q124 100 362 100h58q268 0 386 -73t118 -283v-496q0 -84 -70 -84q-74 0 -74 84v490q0 144 -69 181t-291 37h-58q-202 0 -282 -87t-80 -233v-388q0 -84 -72 -84t-72 84z" />
<glyph unicode="o" horiz-adv-x="1312" d="M122 356v210q0 210 118 283t388 73h58q268 0 386 -73t118 -283v-210q0 -210 -118 -283t-386 -73h-58q-270 0 -388 73t-118 283zM266 362q0 -144 69 -181t293 -37h58q222 0 291 37t69 181v198q0 144 -69 181t-291 37h-58q-224 0 -293 -37t-69 -181v-198z" />
<glyph unicode="p" d="M150 -274v1126q0 84 72 84t72 -90v-24q124 100 362 100h58q268 0 386 -73t118 -283v-210q0 -210 -117 -283t-381 -73h-426v-274q0 -90 -76 -90q-68 0 -68 90zM294 144h426q218 0 286 37t68 181v198q0 144 -69 181t-291 37h-58q-204 0 -283 -85t-79 -229v-320z" />
<glyph unicode="q" d="M122 356v210q0 210 118 283t388 73h58q240 0 360 -100v24q0 90 72 90t72 -84v-1126q0 -90 -68 -90q-28 0 -52 20t-24 70v274h-424q-264 0 -382 73t-118 283zM266 362q0 -144 69 -181t287 -37h424v320q0 314 -360 314h-58q-224 0 -293 -37t-69 -181v-198z" />
<glyph unicode="r" horiz-adv-x="812" d="M148 70v780q0 86 68 86q76 0 76 -92v-22q120 100 302 100h92q90 0 90 -72t-90 -72h-92q-148 0 -225 -82t-77 -238v-388q0 -84 -72 -84t-72 84z" />
<glyph unicode="s" horiz-adv-x="1250" d="M120 242q0 92 72 92t72 -86q0 -60 18 -82t72 -22h536q98 0 98 120q0 58 -27 97t-71 39h-492q-144 0 -211 74t-67 194q0 124 74 189t264 65h450q130 0 175 -67t45 -177q0 -90 -72 -90q-28 0 -50 20t-22 66q0 60 -18 82t-72 22h-532q-98 0 -98 -110q0 -60 28 -92t70 -32 h494q148 0 212 -80t64 -200q0 -128 -75 -196t-261 -68h-456q-130 0 -175 66t-45 176z" />
<glyph unicode="t" horiz-adv-x="746" d="M98 858q0 52 62 62v190q0 92 68 92q76 0 76 -92v-188h256q92 0 92 -76q0 -68 -92 -68h-256v-416q0 -142 62 -180t240 -38q90 0 90 -68q0 -76 -90 -76q-226 0 -336 75t-110 281v432q-62 10 -62 70z" />
<glyph unicode="u" horiz-adv-x="1356" d="M140 356v496q0 84 70 84q74 0 74 -84v-490q0 -144 69 -181t291 -37h58q108 0 182 26t110 76t51 100t19 118v388q0 84 72 84t72 -84v-780q0 -86 -68 -86q-76 0 -76 92v22q-124 -100 -362 -100h-58q-268 0 -386 73t-118 283z" />
<glyph unicode="v" horiz-adv-x="1066" d="M60 898q0 36 21 52t47 16q48 0 76 -56l324 -758l336 760q24 54 76 54q68 0 68 -66q0 -18 -8 -36l-382 -864h-190l-360 864q-8 20 -8 34z" />
<glyph unicode="w" horiz-adv-x="1668" d="M64 884q0 62 68 62q54 0 76 -56l260 -754l288 744q20 54 82 54q58 0 78 -54l276 -744l270 754q22 56 76 56q68 0 68 -62q0 -12 -8 -36l-314 -848h-190l-258 708l-282 -708h-186l-296 848q-8 24 -8 36z" />
<glyph unicode="x" horiz-adv-x="1116" d="M86 40q0 36 24 60l342 360l-342 362q-24 30 -24 58t22 46t48 18q42 0 66 -24l338 -370l336 370q24 24 64 24q26 0 48 -18t22 -46t-24 -58l-342 -362l342 -360q24 -24 24 -60q0 -26 -23 -44t-47 -18q-40 0 -64 24l-336 370l-338 -370q-24 -24 -66 -24q-24 0 -47 18t-23 44 z" />
<glyph unicode="y" horiz-adv-x="1358" d="M140 356v496q0 84 70 84q74 0 74 -84v-490q0 -144 69 -181t291 -37h58q362 0 362 320v388q0 84 72 84t72 -84v-1006q0 -138 -43 -197t-159 -59h-646q-130 0 -175 67t-45 177q0 90 72 90t72 -86q0 -60 18 -82t72 -22h618q46 0 59 15t13 65v286q-124 -100 -362 -100h-58 q-268 0 -386 73t-118 283z" />
<glyph unicode="z" horiz-adv-x="1188" d="M120 0v148l724 630h-490q-56 0 -73 -27t-17 -107q0 -92 -74 -92q-70 0 -70 92q0 150 46 214t174 64h702v-154l-718 -624h524q60 0 76 30t16 104q0 92 72 92t72 -92q0 -148 -47 -213t-173 -65h-744z" />
<glyph unicode="{" horiz-adv-x="574" d="M80 614v40q50 26 98 69t48 77q0 30 -28 123t-28 133q0 94 17 157t40 97t68 52t80 21t95 3v-144q-110 0 -133 -26t-23 -160q0 -14 28 -108t28 -148q0 -80 -124 -166q124 -78 124 -162q0 -54 -28 -146t-28 -110q0 -134 23 -160t133 -26v-144q-50 0 -80 2t-70 12t-63 31 t-45 56t-32 93t-10 136q0 40 28 133t28 123q0 34 -47 74t-99 68z" />
<glyph unicode="|" horiz-adv-x="470" d="M162 66v1138q0 82 72 82t72 -82v-1138q0 -80 -74 -80q-70 0 -70 80z" />
<glyph unicode="}" horiz-adv-x="574" d="M104 30q110 0 133 26t23 160q0 18 -28 110t-28 146q0 84 124 162q-124 86 -124 166q0 54 28 148t28 108q0 134 -23 160t-133 26v144q60 0 95 -3t80 -21t68 -52t40 -97t17 -157q0 -40 -28 -133t-28 -123q0 -34 48 -77t98 -69v-40q-52 -28 -99 -68t-47 -74q0 -30 28 -123 t28 -133q0 -78 -10 -136t-32 -93t-45 -56t-63 -31t-70 -12t-80 -2v144z" />
<glyph unicode="~" horiz-adv-x="876" d="M136 402q0 38 36 68l90 76q26 22 52 22q20 0 46 -10l174 -66q8 -4 12 -4q2 0 8 6l60 52q22 22 56 22q24 0 46 -19t22 -49q0 -40 -36 -68l-88 -76q-30 -22 -52 -22t-48 10l-172 66q-8 4 -12 4t-10 -6l-58 -52q-22 -22 -56 -22q-24 0 -47 19t-23 49z" />
<glyph unicode="&#xa2;" horiz-adv-x="996" d="M98 596v84q0 192 86 278t252 100v172q0 86 74 86q70 0 70 -86v-170h84q130 0 174 -66t44 -176q0 -92 -70 -92q-74 0 -74 88q0 62 -18 82t-70 20h-70v-556h66q56 0 74 21t18 81q0 88 70 88q74 0 74 -92q0 -108 -46 -175t-176 -67h-80v-176q0 -84 -74 -84q-28 0 -49 19 t-21 65v176q-170 14 -254 100t-84 280zM242 596q0 -130 42 -177t152 -57v552q-106 -10 -150 -58t-44 -176v-84z" />
<glyph unicode="&#xa3;" horiz-adv-x="1040" d="M130 50q0 12 2 18l76 868q10 118 45 197t93 117t116 52t134 14q152 0 239 -67t87 -247q0 -46 -23 -66t-51 -20q-70 0 -70 86q0 108 -42 139t-148 31q-114 0 -168 -45t-68 -191l-16 -178h46q46 0 65 -23t19 -51t-19 -49t-65 -21h-56l-48 -500h562q86 0 86 -74 q0 -70 -86 -70h-646q-64 0 -64 80z" />
<glyph unicode="&#xa5;" horiz-adv-x="1120" d="M64 1246q0 30 22 50t48 20q34 0 66 -44l360 -510l358 510q28 44 68 44q24 0 47 -20t23 -50q0 -26 -20 -56l-404 -582v-34h168q46 0 66 -23t20 -51q0 -26 -20 -48t-66 -22h-168v-34h168q46 0 66 -23t20 -51q0 -70 -86 -70h-168v-212q0 -84 -72 -84q-28 0 -49 19t-21 65 v212h-180q-84 0 -84 74q0 70 84 70h180v34h-180q-46 0 -65 23t-19 51q0 70 84 70h180v34l-406 582q-20 34 -20 56z" />
<glyph unicode="&#xa9;" horiz-adv-x="1260" d="M156 524v222q0 224 110 302t336 78h58q224 0 334 -78t110 -302v-222q0 -224 -110 -302t-334 -78h-58q-226 0 -336 78t-110 302zM300 524q0 -152 62 -194t240 -42h58q174 0 237 42t63 194v222q0 152 -63 194t-237 42h-58q-178 0 -240 -42t-62 -194v-222zM410 596v78 q0 90 61 139t149 49h100q68 0 99 -43t31 -93q0 -24 -19 -39t-41 -15q-30 0 -43 13t-15 33l-2 20q-2 2 -14 2h-96q-42 0 -66 -18t-24 -48v-78q0 -30 24 -48t66 -18h96q14 0 14 2l3 14q3 14 6 24t16 19t33 9q24 0 43 -14t19 -40q0 -50 -29 -93t-101 -43h-100q-88 0 -149 49 t-61 139z" />
<glyph unicode="&#xad;" horiz-adv-x="952" d="M146 462q0 26 19 49t63 23h490q88 0 88 -76q0 -32 -25 -51t-63 -19h-490q-82 0 -82 74z" />
<glyph unicode="&#xae;" horiz-adv-x="1260" d="M156 524v222q0 224 110 302t336 78h58q224 0 334 -78t110 -302v-222q0 -224 -110 -302t-334 -78h-58q-226 0 -336 78t-110 302zM300 524q0 -152 62 -194t240 -42h58q174 0 237 42t63 194v222q0 152 -63 194t-237 42h-58q-178 0 -240 -42t-62 -194v-222zM402 434v388 q0 24 20 37t38 13h168q238 0 238 -150q0 -86 -82 -128q88 -102 88 -160q0 -20 -18 -34t-40 -14q-54 0 -64 42q-6 22 -37 72t-73 76h-116v-142q0 -20 -17 -34t-43 -14t-44 14t-18 34zM524 698h104q52 0 77 2t32 7t7 15q0 18 -21 23t-95 5h-104v-52z" />
<glyph unicode="&#xb4;" horiz-adv-x="424" d="M38 1060q0 28 22 58l192 230q34 38 66 38q28 0 49 -20t21 -52t-22 -56l-192 -230q-34 -38 -66 -38q-24 0 -47 20t-23 50z" />
<glyph unicode="&#x2000;" horiz-adv-x="700" />
<glyph unicode="&#x2001;" horiz-adv-x="1400" />
<glyph unicode="&#x2002;" horiz-adv-x="700" />
<glyph unicode="&#x2003;" horiz-adv-x="1400" />
<glyph unicode="&#x2004;" horiz-adv-x="466" />
<glyph unicode="&#x2005;" horiz-adv-x="350" />
<glyph unicode="&#x2006;" horiz-adv-x="233" />
<glyph unicode="&#x2007;" horiz-adv-x="233" />
<glyph unicode="&#x2008;" horiz-adv-x="175" />
<glyph unicode="&#x2009;" horiz-adv-x="280" />
<glyph unicode="&#x200a;" horiz-adv-x="77" />
<glyph unicode="&#x2010;" horiz-adv-x="952" d="M146 462q0 26 19 49t63 23h490q88 0 88 -76q0 -32 -25 -51t-63 -19h-490q-82 0 -82 74z" />
<glyph unicode="&#x2011;" horiz-adv-x="952" d="M146 462q0 26 19 49t63 23h490q88 0 88 -76q0 -32 -25 -51t-63 -19h-490q-82 0 -82 74z" />
<glyph unicode="&#x2012;" horiz-adv-x="952" d="M146 462q0 26 19 49t63 23h490q88 0 88 -76q0 -32 -25 -51t-63 -19h-490q-82 0 -82 74z" />
<glyph unicode="&#x2013;" horiz-adv-x="1086" d="M146 462q0 26 19 49t63 23h626q48 0 68 -24t20 -52q0 -32 -24 -51t-64 -19h-626q-82 0 -82 74z" />
<glyph unicode="&#x2014;" horiz-adv-x="1320" d="M146 462q0 26 19 49t63 23h860q48 0 68 -24t20 -52q0 -32 -24 -51t-64 -19h-860q-82 0 -82 74z" />
<glyph unicode="&#x2018;" horiz-adv-x="436" d="M124 1112q0 104 59 187t103 83q58 0 58 -54q0 -14 -24 -71t-24 -145q0 -32 -25 -52t-65 -20q-82 0 -82 72z" />
<glyph unicode="&#x2019;" horiz-adv-x="438" d="M122 1094q0 14 24 71t24 145q0 32 25 52t65 20q82 0 82 -72q0 -104 -59 -187t-103 -83q-58 0 -58 54z" />
<glyph unicode="&#x201c;" horiz-adv-x="684" d="M124 1112q0 104 59 187t103 83q58 0 58 -54q0 -14 -24 -71t-24 -145q0 -32 -25 -52t-65 -20q-82 0 -82 72zM370 1112q0 104 59 187t103 83q58 0 58 -54q0 -14 -24 -71t-24 -145q0 -32 -25 -52t-65 -20q-82 0 -82 72z" />
<glyph unicode="&#x201d;" horiz-adv-x="682" d="M122 1094q0 14 24 71t24 145q0 32 25 52t65 20q82 0 82 -72q0 -104 -59 -187t-103 -83q-58 0 -58 54zM368 1094q0 14 24 71t24 145q0 32 25 52t65 20q82 0 82 -72q0 -104 -59 -187t-103 -83q-58 0 -58 54z" />
<glyph unicode="&#x2022;" horiz-adv-x="816" d="M108 516q0 126 87 213t213 87t213 -87t87 -213t-87 -213t-213 -87t-213 87t-87 213z" />
<glyph unicode="&#x2026;" horiz-adv-x="1192" d="M128 58q0 44 41 73t81 29t81 -29t41 -73t-41 -73t-81 -29q-44 0 -83 29t-39 73zM474 58q0 44 41 73t81 29t81 -29t41 -73t-41 -73t-81 -29q-44 0 -83 29t-39 73zM820 58q0 44 41 73t81 29t81 -29t41 -73t-41 -73t-81 -29q-44 0 -83 29t-39 73z" />
<glyph unicode="&#x202f;" horiz-adv-x="280" />
<glyph unicode="&#x205f;" horiz-adv-x="350" />
<glyph unicode="&#x20ac;" horiz-adv-x="1160" d="M88 758q0 28 19 49t65 21h42q2 224 135 349t341 125h126q130 0 175 -67t45 -177q0 -90 -72 -90q-28 0 -50 20t-22 66q0 60 -18 82t-72 22h-112q-158 0 -243 -85t-89 -245h368q88 0 88 -74q0 -32 -25 -52t-63 -20h-368v-90h368q48 0 68 -24t20 -52q0 -32 -24 -51t-64 -19 h-368q2 -96 30 -164t78 -103t104 -50t120 -15h112q54 0 72 22t18 82q0 46 22 66t50 20q72 0 72 -92q0 -110 -45 -176t-175 -66h-126q-208 0 -341 125t-135 351h-42q-84 0 -84 74q0 72 84 72h42v90h-42q-46 0 -65 23t-19 53z" />
<glyph unicode="&#x2122;" horiz-adv-x="1344" d="M106 1314q0 28 20 50t66 22h296q86 0 86 -74q0 -70 -86 -70h-76v-374q0 -84 -72 -84t-72 84v374h-76q-46 0 -66 22t-20 50zM582 872v436q0 92 74 92q56 0 82 -52l144 -324l146 326q20 50 80 50q74 0 74 -92v-434q0 -90 -72 -90t-72 90v180l-106 -244q-10 -26 -48 -26 q-42 0 -54 30l-104 240v-182q0 -88 -72 -88t-72 88z" />
<glyph unicode="&#xe000;" horiz-adv-x="945" d="M0 945h945v-945h-945v945z" />
</font>
</defs>
</svg>
