<?xml version="1.0" standalone="no"?>
<!DOCTYPE svg PUBLIC "-//W3C//DTD SVG 1.1//EN" "http://www.w3.org/Graphics/SVG/1.1/DTD/svg11.dtd" >
<svg xmlns="http://www.w3.org/2000/svg">
<metadata>
This is a custom SVG webfont generated by Font Squirrel.
Copyright   : Copyright 2009 2010 2011 by Daniel Johnson  Released under the terms of the Open Font License
</metadata>
<defs>
<font id="JuraBook" horiz-adv-x="1222" >
<font-face units-per-em="2048" ascent="1638" descent="-410" />
<missing-glyph horiz-adv-x="520" />
<glyph unicode=" "  horiz-adv-x="520" />
<glyph unicode="&#x09;" horiz-adv-x="520" />
<glyph unicode="&#xa0;" horiz-adv-x="520" />
<glyph unicode="!" horiz-adv-x="488" d="M142 58q0 34 35 58t67 24q34 0 69 -24t35 -58t-34 -58t-70 -24q-32 0 -67 24t-35 58zM192 394v838q0 66 52 66t52 -66v-838q0 -66 -54 -66q-50 0 -50 66z" />
<glyph unicode="&#x22;" horiz-adv-x="590" d="M142 932v298q0 66 52 66q50 0 50 -66v-298q0 -66 -52 -66q-50 0 -50 66zM344 932v298q0 66 52 66t52 -66v-298q0 -66 -54 -66q-50 0 -50 66z" />
<glyph unicode="#" horiz-adv-x="1206" d="M88 452q0 52 66 52h170l96 264h-206q-64 0 -64 54q0 50 64 50h244l124 340q20 48 52 48q52 0 52 -50q0 -10 -6 -34l-114 -304h248l124 340q18 48 54 48q24 0 38 -16t14 -36q0 -14 -6 -32l-112 -304h126q66 0 66 -52t-66 -52h-164l-96 -264h198q66 0 66 -54q0 -50 -66 -50 h-236l-124 -340q-16 -48 -54 -48q-52 0 -52 52q0 14 6 32l114 304h-250l-122 -340q-16 -48 -54 -48q-50 0 -50 50q0 10 6 34l112 304h-132q-66 0 -66 52zM434 504h246l96 264h-246z" />
<glyph unicode="$" horiz-adv-x="1174" d="M122 400q0 68 52 68t52 -64q0 -70 24 -96t86 -26h208v320h-164q-258 0 -258 262q0 118 59 180t199 62h164v114q0 66 52 66t52 -64v-114h202q64 0 106 -18t62 -53t26 -69t6 -82q0 -68 -52 -68t-52 64q0 70 -24 95t-86 25h-188v-296h150q140 0 198 -78t58 -196 q0 -252 -256 -252h-150v-130q0 -64 -54 -64q-50 0 -50 62v130h-222q-64 0 -106 18t-62 53t-26 69t-6 82zM226 868q0 -78 33 -120t85 -42h200v296h-200q-118 0 -118 -134zM648 282h184q118 0 118 146q0 76 -33 125t-85 49h-184v-320z" />
<glyph unicode="%" horiz-adv-x="1118" d="M138 292q0 24 24 48l722 692q26 24 48 24q16 0 33 -15t17 -35q0 -22 -24 -48l-720 -692q-26 -24 -50 -24q-16 0 -33 15t-17 35zM162 932q0 68 49 116t117 48q70 0 119 -48t49 -116t-49 -116t-119 -48q-68 0 -117 48t-49 116zM268 932q0 -24 18 -42t42 -18q22 0 41 17 t19 43t-19 43t-41 17q-24 0 -42 -18t-18 -42zM624 366q0 68 50 116t120 48q68 0 116 -48t48 -116t-48 -116t-116 -48q-70 0 -120 48t-50 116zM734 366q0 -24 18 -42t42 -18q26 0 43 18t17 42q0 26 -18 43t-42 17t-42 -17t-18 -43z" />
<glyph unicode="&#x26;" horiz-adv-x="1016" d="M78 364q0 98 41 194t127 156l-22 26q-96 116 -96 212q0 152 113 252t245 100q64 0 121 -34t91 -79t54 -83t20 -52q0 -20 -15 -35t-37 -15q-24 0 -47 30t-42 67t-58 67t-89 30q-94 0 -171 -68t-77 -180q0 -72 76 -158l472 -544q58 86 58 204q0 72 54 72q48 0 48 -72 q0 -160 -90 -286l92 -104q14 -16 14 -42q0 -24 -14 -35t-30 -11q-30 0 -60 32l-70 82q-134 -118 -290 -118q-68 0 -137 21t-134 64t-106 123t-41 184zM182 364q0 -150 96 -219t218 -69q118 0 222 92l-404 470q-132 -84 -132 -274z" />
<glyph unicode="'" horiz-adv-x="388" d="M142 932v298q0 66 52 66q50 0 50 -66v-298q0 -66 -52 -66q-50 0 -50 66z" />
<glyph unicode="(" horiz-adv-x="496" d="M146 266v740q0 122 15 196t53 109t79 45t113 10v-104q-42 0 -62 -1t-42 -10t-29 -22t-14 -46t-8 -71t-1 -106v-740q0 -68 1 -106t8 -71t14 -46t29 -22t42 -10t62 -1v-104q-72 0 -113 10t-79 45t-53 109t-15 196z" />
<glyph unicode=")" horiz-adv-x="496" d="M90 10q42 0 62 1t42 10t29 22t14 46t8 71t1 106v740q0 68 -1 106t-8 71t-14 46t-29 22t-42 10t-62 1v104q72 0 113 -10t79 -45t53 -109t15 -196v-740q0 -122 -15 -196t-53 -109t-79 -45t-113 -10v104z" />
<glyph unicode="*" horiz-adv-x="794" d="M130 858q0 30 36 52l126 74l-126 70q-36 22 -36 52q0 14 12 32t36 18q16 0 40 -12l126 -72v144q0 66 54 66q50 0 50 -66v-144l126 72q24 12 40 12q22 0 36 -16t14 -34q0 -28 -38 -52l-124 -70l124 -74q38 -24 38 -52q0 -14 -13 -32t-37 -18q-16 0 -40 12l-126 72v-144 q0 -66 -52 -66t-52 66v144l-126 -72q-24 -12 -40 -12q-20 0 -34 16t-14 34z" />
<glyph unicode="+" horiz-adv-x="1036" d="M76 462q0 52 62 52h328v366q0 66 54 66q50 0 50 -66v-366h324q68 0 68 -56q0 -22 -19 -36t-49 -14h-324v-368q0 -64 -52 -64t-52 64v368h-328q-62 0 -62 54z" />
<glyph unicode="," horiz-adv-x="420" d="M98 -120q0 8 6 32l48 174q14 46 50 46q22 0 52 -12t30 -38q0 -20 -10 -38l-82 -166q-20 -48 -50 -48q-44 0 -44 50z" />
<glyph unicode="-" horiz-adv-x="912" d="M146 462q0 52 62 52h490q68 0 68 -56q0 -22 -19 -36t-49 -14h-490q-62 0 -62 54z" />
<glyph unicode="." horiz-adv-x="464" d="M130 58q0 34 34 58t68 24q32 0 67 -24t35 -58t-35 -58t-67 -24q-34 0 -68 24t-34 58z" />
<glyph unicode="/" horiz-adv-x="718" d="M86 22q0 12 6 36l436 1196q16 46 50 46q18 0 36 -11t18 -37q0 -15 -6 -36l-436 -1196q-16 -46 -52 -46q-18 0 -35 11t-17 37z" />
<glyph unicode="0" horiz-adv-x="1232" d="M152 308v656q0 140 101 229t255 89h216q154 0 255 -89t101 -229v-656q0 -140 -101 -229t-255 -89h-216q-154 0 -255 89t-101 229zM256 276q0 -68 67 -125t167 -57h252q100 0 167 57t67 125v718q0 68 -67 125t-167 57h-252q-100 0 -167 -57t-67 -125v-718z" />
<glyph unicode="1" horiz-adv-x="506" d="M70 1168q0 26 28 52l122 124q30 26 56 26q18 0 36 -14t18 -42v-1264q0 -64 -52 -64t-52 64v1150l-50 -48q-26 -28 -58 -28q-26 0 -37 14t-11 30z" />
<glyph unicode="2" horiz-adv-x="1174" d="M126 -10v98q0 142 85 251t205 176t241 124t206 127t85 154q0 166 -70 212t-258 46h-282q-64 0 -86 -27t-22 -93q0 -70 -54 -70q-50 0 -50 70q0 120 46 172t152 52h296q222 0 327 -73t105 -289q0 -100 -83 -181t-203 -142l-240 -126q-120 -65 -206 -161t-90 -216h752 q70 0 70 -54q0 -50 -70 -50h-856z" />
<glyph unicode="3" horiz-adv-x="1192" d="M124 212q0 72 52 72t52 -66q0 -56 91 -90t185 -34h168q158 0 218 61t60 177q0 106 -128 186t-244 80q-78 0 -78 54q0 52 78 52q124 0 248 66t124 170q0 116 -60 177t-218 61h-168q-94 0 -185 -34t-91 -90q0 -66 -52 -66t-52 70q0 90 99 157t267 67h160q218 0 310 -85 t92 -295q0 -66 -88 -144t-166 -106q74 -22 164 -117t90 -165q0 -210 -92 -295t-310 -85h-160q-168 0 -267 67t-99 155z" />
<glyph unicode="4" horiz-adv-x="1070" d="M66 340v126l628 816h132v-838h112q64 0 64 -52t-64 -52h-112v-292q0 -62 -52 -62q-54 0 -54 62v292h-654zM170 444h550v714z" />
<glyph unicode="5" horiz-adv-x="1138" d="M128 190q0 20 16 36t32 16q10 0 65 -39t145 -78t186 -39q172 0 266 98t94 274q0 86 -31 151t-81 99t-99 50t-97 16h-484l18 250q10 144 62 201t166 57h502q64 0 64 -54q0 -50 -64 -50h-514q-50 0 -76 -26t-32 -94l-12 -180h352q168 0 299 -114t131 -306q0 -222 -129 -349 t-335 -127q-126 0 -285 70t-159 138z" />
<glyph unicode="6" horiz-adv-x="1112" d="M104 418q0 174 44 327t106 249t132 165t122 99t76 30q58 0 58 -46q0 -32 -44 -54q-104 -54 -199 -165t-145 -273q128 106 314 106q200 0 332 -123t132 -313q0 -192 -132 -315t-332 -123q-202 0 -333 122t-131 314zM208 420q0 -152 96 -243t264 -91t264 91t96 243 q0 150 -96 241t-264 91t-264 -91t-96 -241z" />
<glyph unicode="7" horiz-adv-x="996" d="M58 1068q0 120 47 172t153 52h640q52 0 52 -46q0 -18 -8 -42l-436 -1172q-20 -52 -54 -52q-20 0 -39 11t-19 37q0 20 10 42l422 1118h-552q-64 0 -88 -27t-24 -93q0 -70 -52 -70t-52 70z" />
<glyph unicode="8" horiz-adv-x="1220" d="M146 348q0 224 128 304q-128 70 -128 292q0 92 22 156t55 99t94 54t117 24t146 5h62q88 0 144 -5t117 -24t94 -54t55 -99t22 -156q0 -222 -126 -292q126 -80 126 -304q0 -112 -29 -185t-90 -110t-133 -50t-180 -13h-62q-86 0 -147 7t-118 30t-92 61t-56 103t-21 157z M250 944q0 -70 14 -114t33 -69t68 -37t89 -14t126 -2h62q72 0 106 1t81 8t66 21t40 40t28 67t7 99q0 50 -7 86t-16 62t-33 42t-43 25t-62 13t-74 5t-93 1h-62q-88 0 -126 -2t-88 -13t-69 -36t-33 -69t-14 -114zM250 348q0 -86 17 -138t63 -77t99 -32t151 -7h62q98 0 150 7 t98 32t63 77t17 138q0 164 -70 210t-258 46h-62q-96 0 -150 -7t-100 -33t-63 -78t-17 -138z" />
<glyph unicode="9" horiz-adv-x="1112" d="M84 942q0 90 38 156t91 100t128 54t128 25t111 5q432 0 432 -342q0 -212 -63 -398t-164 -309t-229 -194t-260 -71q-62 0 -62 54q0 52 62 52q70 0 153 35t169 102t158 187t106 270q-102 -64 -302 -64q-496 0 -496 338zM188 942q0 -76 35 -127t99 -72t121 -28t137 -7 q178 0 253 60t75 172q0 238 -328 238q-392 0 -392 -236z" />
<glyph unicode=":" horiz-adv-x="496" d="M146 160q0 34 34 58t68 24q32 0 67 -24t35 -58t-35 -58t-67 -24q-34 0 -68 24t-34 58zM146 866q0 34 34 58t68 24q32 0 67 -24t35 -58t-35 -58t-67 -24q-34 0 -68 24t-34 58z" />
<glyph unicode=";" horiz-adv-x="502" d="M146 866q0 34 34 58t68 24q32 0 67 -24t35 -58t-35 -58t-67 -24q-34 0 -68 24t-34 58zM160 -18q0 8 6 32l48 174q14 46 50 46q22 0 52 -12t30 -38q0 -20 -10 -38l-82 -166q-20 -48 -50 -48q-44 0 -44 50z" />
<glyph unicode="&#x3c;" horiz-adv-x="1060" d="M66 666q0 30 36 50l728 420q16 12 40 12q22 0 36 -13t14 -33q0 -16 -12 -33t-26 -23l-662 -380l660 -384q40 -20 40 -50q0 -14 -12 -34t-36 -20q-20 0 -42 14l-728 420q-36 22 -36 54z" />
<glyph unicode="=" horiz-adv-x="936" d="M158 562q0 52 62 52h490q68 0 68 -56q0 -22 -19 -36t-49 -14h-490q-62 0 -62 54zM158 768q0 52 62 52h490q68 0 68 -56q0 -22 -19 -36t-49 -14h-490q-62 0 -62 54z" />
<glyph unicode="&#x3e;" horiz-adv-x="1060" d="M140 232q0 30 40 50l660 384l-662 380q-14 6 -26 23t-12 33q0 20 14 33t36 13q24 0 40 -12l728 -420q36 -20 36 -50q0 -32 -36 -54l-728 -420q-22 -14 -42 -14q-24 0 -36 20t-12 34z" />
<glyph unicode="?" horiz-adv-x="1072" d="M76 942q0 112 29 185t91 109t132 49t176 13h152q176 0 254 -97t78 -233q0 -134 -57 -208t-197 -112l-180 -50v-210q0 -66 -52 -66t-52 66v288l314 86q52 14 86 70t34 136q0 84 -47 155t-147 71h-186q-76 0 -121 -4t-89 -17t-65 -41t-34 -74t-13 -116q0 -66 -52 -66 q-54 0 -54 66zM400 58q0 34 34 58t68 24q32 0 67 -24t35 -58t-35 -58t-67 -24q-34 0 -68 24t-34 58z" />
<glyph unicode="@" horiz-adv-x="1186" d="M140 482v308q0 230 116 361t310 131h58q194 0 310 -131t116 -361q0 -64 -2 -104t-12 -89t-28 -79t-51 -61t-80 -48t-116 -28t-159 -11q-146 0 -199 68t-53 226q0 156 53 224t199 68t200 -68t54 -224q0 -102 -20 -164q64 18 87 74t23 216q0 184 -82 286t-240 102h-58 q-160 0 -241 -102t-81 -286v-308q0 -184 81 -286t241 -102h268q62 0 87 27t25 97q0 66 50 66q54 0 54 -72q0 -46 -7 -80t-26 -69t-62 -54t-107 -19h-282q-194 0 -310 131t-116 361zM454 664q0 -116 26 -153t122 -37q98 0 124 38t26 152t-26 151t-124 37q-96 0 -122 -37 t-26 -151z" />
<glyph unicode="A" horiz-adv-x="1140" d="M48 18q0 14 6 32l454 1222h124l454 -1222q6 -18 6 -32q0 -26 -18 -38t-34 -12q-34 0 -54 46l-142 384h-548l-142 -384q-20 -46 -54 -46q-16 0 -34 12t-18 38zM336 502h468l-236 618z" />
<glyph unicode="B" horiz-adv-x="1210" d="M168 1200q0 72 48 72h360q222 0 329 -62t107 -238q0 -152 -98 -224q92 -34 137 -111t45 -219v-58q0 -216 -107 -288t-337 -72h-436q-48 0 -48 72v1128zM272 768h304q184 0 258 38t74 156q0 126 -73 161t-259 35h-304v-390zM272 104h380q196 0 268 45t72 207v56 q0 162 -70 207t-258 45h-392v-560z" />
<glyph unicode="C" horiz-adv-x="1184" d="M144 360v552q0 216 106 288t328 72h294q64 0 107 -19t62 -54t25 -69t6 -82q0 -70 -52 -70t-52 66q0 70 -24 97t-86 27h-280q-96 0 -150 -7t-100 -33t-63 -78t-17 -138v-552q0 -166 72 -211t270 -45h268q64 0 87 28t23 96q0 66 52 66t52 -72q0 -46 -6 -80t-25 -69t-62 -54 t-107 -19h-282q-232 0 -339 72t-107 288z" />
<glyph unicode="D" horiz-adv-x="1240" d="M168 72v1128q0 72 48 72h448q108 0 180 -13t133 -51t90 -111t29 -185v-552q0 -216 -107 -288t-337 -72h-436q-48 0 -48 72zM272 104h380q196 0 268 45t72 211v552q0 164 -70 210t-258 46h-392v-1064z" />
<glyph unicode="E" horiz-adv-x="1196" d="M168 72v1128q0 72 48 72h812q68 0 68 -56q0 -48 -68 -48h-756v-400h518q72 0 72 -56q0 -48 -72 -48h-518v-560h756q68 0 68 -56q0 -48 -68 -48h-812q-48 0 -48 72z" />
<glyph unicode="F" horiz-adv-x="1154" d="M168 56v1144q0 72 48 72h812q68 0 68 -56q0 -48 -68 -48h-756v-400h518q72 0 72 -56q0 -48 -72 -48h-518v-610q0 -68 -52 -68t-52 70z" />
<glyph unicode="G" horiz-adv-x="1212" d="M144 354v564q0 212 107 283t339 71h282q64 0 107 -19t62 -54t25 -69t6 -80q0 -72 -52 -72t-52 68q0 66 -23 94t-87 28h-268q-198 0 -270 -45t-72 -207v-560q0 -162 71 -207t259 -45h280q64 0 87 27t23 93v268h-262q-72 0 -72 50q0 54 72 54h366v-378q0 -98 -39 -158 t-161 -60h-294q-110 0 -182 13t-133 49t-90 108t-29 184z" />
<glyph unicode="H" horiz-adv-x="1264" d="M168 54v1162q0 70 48 70q56 0 56 -70v-478h720v478q0 70 50 70q54 0 54 -70v-1162q0 -68 -50 -68q-54 0 -54 68v580h-720v-580q0 -68 -52 -68t-52 68z" />
<glyph unicode="I" horiz-adv-x="440" d="M168 50v1170q0 66 52 66t52 -66v-1170q0 -64 -54 -64q-50 0 -50 64z" />
<glyph unicode="J" horiz-adv-x="1100" d="M64 344q0 66 56 66q50 0 50 -66q0 -166 70 -211t262 -45q190 0 261 45t71 207v882q0 64 52 64t52 -66v-882q0 -112 -29 -184t-90 -108t-134 -49t-183 -13t-183 13t-135 50t-91 110t-29 187z" />
<glyph unicode="K" horiz-adv-x="1036" d="M168 50v1170q0 66 52 66t52 -66v-560l522 596q22 30 50 30q16 0 33 -14t17 -34q0 -22 -20 -48l-426 -478l558 -630q22 -26 22 -46t-18 -35t-34 -15q-26 0 -50 30l-548 628l-106 -128v-466q0 -64 -54 -64q-50 0 -50 64z" />
<glyph unicode="L" horiz-adv-x="1032" d="M168 70v1152q0 64 52 64t52 -64v-1118h646q66 0 66 -54q0 -50 -66 -50h-702q-48 0 -48 70z" />
<glyph unicode="M" horiz-adv-x="1306" d="M168 54v1162q0 70 48 70q36 0 60 -38l376 -556l378 556q26 38 58 38q50 0 50 -70v-1162q0 -68 -54 -68q-50 0 -50 70v1034l-346 -516q-12 -16 -36 -16q-22 0 -34 16l-346 516v-1034q0 -70 -52 -70t-52 68z" />
<glyph unicode="N" horiz-adv-x="1264" d="M168 54v1162q0 70 48 70q36 0 60 -38l716 -1056v1022q0 72 50 72q54 0 54 -70v-1162q0 -68 -50 -68q-28 0 -40 14l-734 1086v-1034q0 -66 -52 -66t-52 68z" />
<glyph unicode="O" horiz-adv-x="1188" d="M130 456v360q0 222 130 348t334 126t334 -127t130 -347v-360q0 -220 -130 -347t-334 -127t-334 126t-130 348zM234 458q0 -176 94 -274t266 -98t266 98t94 274v356q0 176 -94 274t-266 98t-266 -98t-94 -274v-356z" />
<glyph unicode="P" horiz-adv-x="1080" d="M168 50v1150q0 72 48 72h362q216 0 325 -66t109 -244q0 -150 -91 -229t-255 -79h-394v-604q0 -64 -54 -64q-50 0 -50 64zM272 758h306q184 0 257 40t73 164q0 128 -74 167t-256 39h-306v-410z" />
<glyph unicode="Q" horiz-adv-x="1188" d="M130 456v360q0 222 130 348t334 126t334 -127t130 -347v-360q0 -194 -98 -314l70 -68q22 -26 22 -48q0 -18 -14 -34t-34 -16q-26 0 -48 22l-70 70q-120 -86 -292 -86q-204 0 -334 126t-130 348zM234 458q0 -176 94 -274t266 -98q136 0 218 58l-112 104q-26 22 -26 46 q0 20 15 36t37 16q24 0 52 -26l108 -106q68 92 68 244v356q0 176 -94 274t-266 98t-266 -98t-94 -274v-356z" />
<glyph unicode="R" horiz-adv-x="1138" d="M168 50v1150q0 72 48 72h360q218 0 327 -66t109 -244q0 -250 -234 -298q66 -64 128 -214t92 -264t30 -136q0 -28 -15 -46t-39 -18t-37 19t-13 45t-28 132t-96 252t-152 210h-376v-594q0 -64 -54 -64q-50 0 -50 64zM272 748h304q186 0 259 40t73 164q0 128 -74 167 t-258 39h-304v-410z" />
<glyph unicode="S" horiz-adv-x="1198" d="M122 344q0 66 56 66q50 0 50 -66q0 -166 71 -211t269 -45h204q106 0 152 72t46 154q0 98 -39 159t-81 71l-470 104q-140 30 -199 105t-59 211q0 134 82 229t272 95h152q114 0 187 -13t137 -49t93 -108t29 -186q0 -66 -54 -66q-52 0 -52 66q0 166 -70 209t-270 43h-196 q-108 0 -157 -70t-49 -152q0 -80 35 -137t85 -67l474 -102q134 -30 194 -124t60 -220q0 -134 -79 -231t-261 -97h-166q-114 0 -188 13t-137 50t-92 110t-29 187z" />
<glyph unicode="T" horiz-adv-x="962" d="M54 1220q0 52 66 52h722q66 0 66 -54q0 -50 -66 -50h-304v-1118q0 -64 -58 -64q-52 0 -52 64v1118h-308q-66 0 -66 52z" />
<glyph unicode="U" horiz-adv-x="1240" d="M156 456v764q0 66 52 66t52 -64v-764q0 -176 94 -274t266 -98t266 98t94 274v764q0 64 54 64q50 0 50 -66v-764q0 -220 -130 -347t-334 -127t-334 126t-130 348z" />
<glyph unicode="V" horiz-adv-x="1140" d="M48 1254q0 26 18 38t34 12q34 0 54 -46l418 -1106l414 1106q20 46 54 46q16 0 34 -12t18 -38q0 -14 -6 -32l-454 -1222h-124l-454 1222q-6 18 -6 32z" />
<glyph unicode="W" horiz-adv-x="1830" d="M54 1268q0 38 48 38q40 0 56 -44l348 -1118l350 1108q18 52 58 52q46 0 62 -52l352 -1108l344 1110q16 44 56 44q48 0 48 -38q0 -12 -8 -36l-384 -1224h-116l-354 1106l-352 -1106h-114l-386 1232q-8 24 -8 36z" />
<glyph unicode="X" horiz-adv-x="1118" d="M72 34q0 22 16 44l406 556l-406 558q-16 18 -16 42q0 28 18 40t32 12q26 0 52 -36l384 -534l386 534q28 36 50 36q16 0 34 -12t18 -40q0 -24 -16 -42l-406 -558l406 -556q16 -22 16 -44t-17 -35t-35 -13q-26 0 -50 32l-386 536l-384 -536q-24 -32 -52 -32q-18 0 -34 14 t-16 34z" />
<glyph unicode="Y" horiz-adv-x="1042" d="M34 1236q0 22 16 36t34 14q22 0 50 -36l386 -534l384 534q26 36 52 36q16 0 33 -15t17 -35q0 -18 -16 -42l-416 -578v-568q0 -62 -54 -62q-52 0 -52 62v568l-418 578q-16 24 -16 42z" />
<glyph unicode="Z" horiz-adv-x="1110" d="M90 1240q0 52 72 52h856v-106l-798 -1082h728q70 0 70 -54q0 -50 -70 -50h-856v102l802 1086h-732q-72 0 -72 52z" />
<glyph unicode="[" horiz-adv-x="510" d="M160 -94v1460h260v-104h-156v-1252h156v-104h-260z" />
<glyph unicode="\" horiz-adv-x="718" d="M86 1252q0 26 17 37t35 11q36 0 52 -46l436 -1196q6 -24 6 -36q0 -26 -18 -37t-36 -11q-34 0 -50 46l-436 1196q-6 21 -6 36z" />
<glyph unicode="]" horiz-adv-x="510" d="M90 10h156v1252h-156v104h260v-1460h-260v104z" />
<glyph unicode="^" horiz-adv-x="886" d="M160 766q0 8 4 24l220 492h120l218 -492q4 -8 4 -24q0 -46 -46 -46q-36 0 -58 42l-178 400l-180 -400q-22 -42 -58 -42q-20 0 -33 13t-13 33z" />
<glyph unicode="_" horiz-adv-x="950" d="M-10 -40q0 50 66 50h838q66 0 66 -54q0 -50 -66 -50h-838q-66 0 -66 54z" />
<glyph unicode="`" horiz-adv-x="424" d="M58 1314q0 22 16 37t34 15q24 0 50 -30l192 -230q18 -22 18 -46q0 -22 -16 -36t-34 -14q-22 0 -50 30l-192 230q-18 22 -18 44z" />
<glyph unicode="a" horiz-adv-x="1108" d="M120 246q0 202 109 273t337 71h294v114q0 62 -23 88t-87 26h-282q-244 0 -244 -120q0 -70 -54 -70q-50 0 -50 70q0 116 92 170t242 54h310q116 0 158 -56t42 -196v-616q0 -68 -52 -68t-52 70v70q-114 -126 -340 -126h-186q-94 0 -154 67t-60 179zM224 236q0 -52 34 -92 t76 -40h186q168 0 254 91t86 261v30h-294q-102 0 -157 -7t-103 -32t-65 -75t-17 -136z" />
<glyph unicode="b" d="M150 54v1160q0 72 48 72q56 0 56 -72v-418q118 126 342 126h58q230 0 337 -71t107 -281v-218q0 -210 -107 -281t-337 -71h-58q-224 0 -342 126v-70q0 -70 -52 -70t-52 68zM254 456q0 -352 342 -352h58q102 0 157 7t102 32t64 75t17 136v214q0 86 -17 136t-64 75t-102 32 t-157 7h-58q-342 0 -342 -354v-8z" />
<glyph unicode="c" horiz-adv-x="1168" d="M124 352v218q0 210 108 281t338 71h282q64 0 107 -19t62 -55t25 -70t6 -80q0 -70 -52 -70t-52 66q0 70 -24 97t-86 27h-268q-102 0 -157 -7t-103 -32t-65 -75t-17 -136v-214q0 -86 17 -136t65 -75t103 -32t157 -7h268q64 0 87 28t23 96q0 66 52 66t52 -72q0 -46 -6 -80 t-25 -69t-62 -54t-107 -19h-282q-230 0 -338 71t-108 281z" />
<glyph unicode="d" d="M124 352v218q0 210 107 281t337 71h400v292q0 72 56 72q48 0 48 -72v-1160q0 -68 -52 -68t-52 70v70q-118 -126 -342 -126h-58q-230 0 -337 71t-107 281zM228 354q0 -86 17 -136t64 -75t102 -32t157 -7h58q342 0 342 352v362h-400q-102 0 -157 -7t-102 -32t-64 -75 t-17 -136v-214z" />
<glyph unicode="e" horiz-adv-x="1184" d="M124 352v218q0 210 108 281t338 71h58q230 0 337 -71t107 -281v-80h-844v-136q0 -86 17 -136t65 -75t103 -32t157 -7h268q64 0 87 28t23 96q0 66 52 66t52 -72q0 -46 -6 -80t-25 -69t-62 -54t-107 -19h-282q-230 0 -338 71t-108 281zM228 594h740q-2 142 -75 183t-265 41 h-58q-194 0 -267 -41t-75 -183z" />
<glyph unicode="f" horiz-adv-x="646" d="M98 874q0 44 62 48q2 110 31 182t90 108t130 48t175 12q72 0 72 -56q0 -48 -72 -48q-94 0 -145 -7t-96 -31t-63 -74t-18 -134h276q72 0 72 -56q0 -48 -72 -48h-276v-762q0 -70 -56 -70q-48 0 -48 70v764q-62 4 -62 54z" />
<glyph unicode="g" d="M124 -186q0 70 52 70t52 -66q0 -70 24 -97t86 -27h538q58 0 75 20t17 80v206h-400q-230 0 -337 71t-107 281v218q0 210 107 281t337 71h58q224 0 342 -126v70q0 70 52 70t52 -68v-1042q0 -130 -38 -183t-144 -53h-566q-64 0 -107 19t-62 55t-25 70t-6 80zM228 354 q0 -86 17 -136t64 -75t102 -32t157 -7h400v362q0 352 -342 352h-58q-102 0 -157 -7t-102 -32t-64 -75t-17 -136v-214z" />
<glyph unicode="h" horiz-adv-x="1238" d="M150 54v1160q0 72 48 72q56 0 56 -72v-418q118 126 342 126h58q230 0 337 -71t107 -281v-516q0 -68 -50 -68q-54 0 -54 68v514q0 86 -17 136t-64 75t-102 32t-157 7h-58q-170 0 -256 -91t-86 -265v-408q0 -68 -52 -68t-52 68z" />
<glyph unicode="i" horiz-adv-x="400" d="M98 1202q0 34 34 58t68 24q32 0 67 -24t35 -58t-35 -58t-67 -24q-34 0 -68 24t-34 58zM148 40v840q0 66 52 66t52 -66v-840q0 -64 -54 -64q-50 0 -50 64z" />
<glyph unicode="j" horiz-adv-x="404" d="M-244 -296q0 50 72 50q184 0 253 44t69 202v864q0 72 54 72q50 0 50 -72v-864q0 -112 -29 -183t-90 -107t-131 -48t-176 -12q-72 0 -72 54zM96 1202q0 34 34 58t68 24q32 0 67 -24t35 -58t-35 -58t-67 -24q-34 0 -68 24t-34 58z" />
<glyph unicode="k" horiz-adv-x="908" d="M150 48v1172q0 66 52 66t52 -66v-682l388 370q26 24 48 24q18 0 34 -15t16 -37t-24 -46l-332 -304l478 -444q22 -26 22 -48q0 -18 -14 -34t-34 -16q-22 0 -50 24l-474 458l-58 -58v-362q0 -64 -54 -64q-50 0 -50 62z" />
<glyph unicode="l" horiz-adv-x="542" d="M180 254v962q0 70 52 70t52 -70v-996q0 -64 23 -90t87 -26q70 0 70 -54q0 -50 -70 -50h-14q-116 0 -158 57t-42 197z" />
<glyph unicode="m" horiz-adv-x="1660" d="M148 54v812q0 70 48 70q56 0 56 -72v-68q56 68 114 97t148 29q136 0 220 -33t122 -127q102 160 294 160q184 0 276 -72t92 -280v-516q0 -68 -52 -68t-52 68v514q0 86 -13 136t-49 75t-79 32t-123 7q-126 0 -196 -92t-70 -264v-408q0 -68 -50 -68q-54 0 -54 68v514 q0 162 -55 206t-211 44q-124 0 -193 -92t-69 -264v-408q0 -68 -52 -68t-52 68z" />
<glyph unicode="n" horiz-adv-x="1234" d="M148 54v812q0 70 48 70q56 0 56 -72v-68q118 126 342 126h58q230 0 337 -71t107 -281v-516q0 -68 -50 -68q-54 0 -54 68v514q0 86 -17 136t-64 75t-102 32t-157 7h-58q-170 0 -256 -91t-86 -265v-408q0 -68 -52 -68t-52 68z" />
<glyph unicode="o" horiz-adv-x="1196" d="M124 352v218q0 210 108 281t338 71h58q230 0 337 -71t107 -281v-218q0 -210 -107 -281t-337 -71h-58q-230 0 -338 71t-108 281zM228 354q0 -86 17 -136t65 -75t103 -32t157 -7h58q102 0 157 7t102 32t64 75t17 136v214q0 86 -17 136t-64 75t-102 32t-157 7h-58 q-102 0 -157 -7t-103 -32t-65 -75t-17 -136v-214z" />
<glyph unicode="p" d="M150 -294v1162q0 68 52 68t52 -70v-70q118 126 342 126h58q230 0 337 -71t107 -281v-218q0 -210 -107 -281t-335 -71h-402v-294q0 -70 -56 -70q-48 0 -48 70zM254 104h402q196 0 267 44t71 206v214q0 86 -17 136t-64 75t-102 32t-157 7h-58q-342 0 -342 -354v-360z" />
<glyph unicode="q" d="M124 570q0 210 108 281t338 71h58q226 0 340 -126v70q0 70 52 70t52 -68v-1162q0 -70 -48 -70q-56 0 -56 70v294h-400q-230 0 -337 71t-107 281v218zM228 568v-214q0 -86 17 -136t64 -75t102 -32t157 -7h400v360q0 354 -340 354h-58q-102 0 -157 -7t-103 -32t-65 -75 t-17 -136z" />
<glyph unicode="r" horiz-adv-x="766" d="M148 54v812q0 70 48 70q56 0 56 -72v-68q118 126 322 126h92q70 0 70 -52t-70 -52h-92q-156 0 -239 -92t-83 -264v-408q0 -68 -52 -68t-52 68z" />
<glyph unicode="s" horiz-adv-x="1172" d="M120 222q0 72 52 72t52 -66q0 -68 23 -96t87 -28h496q118 0 118 148q0 74 -33 121t-85 47h-452q-258 0 -258 260q0 120 62 181t216 61h450q64 0 107 -19t62 -55t25 -70t6 -80q0 -70 -52 -70t-52 66q0 70 -24 97t-86 27h-492q-118 0 -118 -138q0 -76 33 -116t85 -40h454 q140 0 198 -78t58 -194q0 -124 -63 -188t-213 -64h-456q-64 0 -107 19t-62 54t-25 69t-6 80z" />
<glyph unicode="t" horiz-adv-x="688" d="M94 874q0 44 62 48v208q0 72 48 72q56 0 56 -72v-208h276q72 0 72 -56q0 -48 -72 -48h-276v-464q0 -162 69 -206t253 -44q70 0 70 -48q0 -56 -70 -56q-216 0 -321 72t-105 280v468q-62 4 -62 54z" />
<glyph unicode="u" horiz-adv-x="1236" d="M140 352v516q0 68 50 68q54 0 54 -68v-514q0 -86 17 -136t64 -75t102 -32t157 -7h58q170 0 256 91t86 265v408q0 68 52 68t52 -68v-812q0 -70 -48 -70q-56 0 -56 72v68q-118 -126 -342 -126h-58q-230 0 -337 71t-107 281z" />
<glyph unicode="v" horiz-adv-x="1018" d="M56 904q0 42 48 42q36 0 56 -44l344 -800l356 802q18 42 56 42q48 0 48 -40q0 -16 -8 -34l-384 -872h-148l-360 872q-8 18 -8 32z" />
<glyph unicode="w" horiz-adv-x="1584" d="M62 908q0 38 48 38q40 0 56 -44l280 -806l292 796q16 42 58 42q40 0 54 -42l280 -796l290 806q16 44 56 44q48 0 48 -38q0 -12 -8 -36l-310 -872h-158l-254 748l-274 -748h-158l-292 872q-8 24 -8 36z" />
<glyph unicode="x" horiz-adv-x="1024" d="M80 24q0 8 20 48l342 388l-342 390q-20 24 -20 46q0 20 16 34t34 14q22 0 50 -24l334 -386l332 386q24 24 48 24q18 0 34 -14t16 -34q0 -22 -20 -46l-342 -390l342 -388q20 -30 20 -48q0 -20 -16 -33t-34 -13q-24 0 -48 24l-332 386l-334 -386q-28 -24 -50 -24 q-18 0 -34 13t-16 33z" />
<glyph unicode="y" horiz-adv-x="1238" d="M140 -186q0 70 52 70t52 -66q0 -70 24 -97t86 -27h538q58 0 75 20t17 80v332q-118 -126 -342 -126h-58q-230 0 -337 71t-107 281v516q0 68 50 68q54 0 54 -68v-514q0 -86 17 -136t64 -75t102 -32t157 -7h58q170 0 256 91t86 265v408q0 68 52 68t52 -68v-1042 q0 -130 -38 -183t-144 -53h-566q-64 0 -107 19t-62 55t-25 70t-6 80z" />
<glyph unicode="z" horiz-adv-x="1104" d="M118 0v128l714 690h-500q-70 0 -90 -36t-20 -118q0 -72 -54 -72q-50 0 -50 72q0 142 42 200t158 58h642v-134l-708 -684h534q72 0 92 36t20 118q0 72 52 72t52 -72q0 -140 -42 -199t-158 -59h-684z" />
<glyph unicode="{" horiz-adv-x="524" d="M76 626v16q42 22 94 68t52 90q0 34 -28 126t-28 130q0 190 60 250t200 60v-104q-104 0 -130 -34t-26 -172q0 -20 28 -112t28 -144q0 -80 -142 -166q142 -78 142 -162q0 -52 -28 -144t-28 -112q0 -140 25 -173t131 -33v-104q-140 0 -200 60t-60 250q0 38 28 130t28 126 q0 44 -52 89t-94 65z" />
<glyph unicode="|" horiz-adv-x="428" d="M162 50v1170q0 66 52 66t52 -66v-1170q0 -64 -54 -64q-50 0 -50 64z" />
<glyph unicode="}" horiz-adv-x="524" d="M98 10q106 0 131 33t25 173q0 20 -28 112t-28 144q0 84 142 162q-142 86 -142 166q0 52 28 144t28 112q0 138 -26 172t-130 34v104q140 0 200 -60t60 -250q0 -38 -28 -130t-28 -126q0 -44 52 -90t94 -68v-16q-42 -20 -94 -65t-52 -89q0 -34 28 -126t28 -130 q0 -190 -60 -250t-200 -60v104z" />
<glyph unicode="~" horiz-adv-x="850" d="M142 402q0 30 28 52l92 76q14 18 38 18q4 0 14 -2t12 -2l196 -72l10 -4q6 0 16 8l62 56q26 18 44 18q20 0 36 -12t16 -34q0 -28 -28 -54l-94 -78q-16 -16 -38 -16q-4 0 -8 1t-7 1t-6 1l-3 1l-196 72q-4 4 -12 4q-6 0 -16 -8l-62 -56q-26 -18 -44 -18t-34 13t-16 35z" />
<glyph unicode="&#xa2;" horiz-adv-x="956" d="M98 596v84q0 190 86 269t252 89v192q0 66 54 66q50 0 50 -66v-190h104q64 0 106 -19t61 -54t25 -68t6 -81q0 -72 -50 -72q-54 0 -54 68q0 70 -23 96t-85 26h-90v-596h86q62 0 87 26t25 96q0 68 50 68q54 0 54 -72q0 -46 -7 -80t-26 -69t-62 -54t-107 -19h-100v-196 q0 -64 -54 -64q-50 0 -50 64v196q-170 10 -254 88t-84 272zM202 596q0 -146 52 -197t182 -57v592q-126 -6 -180 -59t-54 -195v-84z" />
<glyph unicode="&#xa3;" horiz-adv-x="1002" d="M130 46q0 12 2 18l76 872q10 112 43 187t88 111t110 49t127 13q142 0 224 -61t82 -233q0 -66 -54 -66q-50 0 -50 66q0 122 -50 156t-160 34q-118 0 -180 -48t-76 -208l-18 -198h68q64 0 64 -54q0 -50 -64 -50h-76l-48 -540h582q66 0 66 -54q0 -50 -66 -50h-646 q-44 0 -44 56z" />
<glyph unicode="&#xa5;" horiz-adv-x="1076" d="M62 1246q0 22 16 36t34 14q22 0 50 -36l376 -534l374 534q24 36 52 36q16 0 33 -15t17 -35t-16 -44l-408 -586v-62h188q66 0 66 -54q0 -50 -66 -50h-188v-74h188q66 0 66 -54q0 -50 -66 -50h-188v-232q0 -64 -52 -64q-50 0 -50 64v232h-200q-64 0 -64 54q0 50 64 50h200 v74h-200q-64 0 -64 54q0 50 64 50h200v62l-410 586q-16 24 -16 44z" />
<glyph unicode="&#xa9;" horiz-adv-x="1224" d="M158 524v222q0 112 29 185t89 111t131 51t177 13h58q216 0 320 -73t104 -287v-222q0 -214 -104 -287t-320 -73h-58q-106 0 -177 13t-131 51t-89 111t-29 185zM262 524q0 -164 69 -210t253 -46h58q182 0 251 46t69 210v222q0 164 -69 210t-251 46h-58q-184 0 -253 -46 t-69 -210v-222zM412 596v78q0 82 56 125t134 43h100q60 0 85 -36t25 -80q0 -34 -42 -34q-36 0 -36 30q0 22 -7 30t-29 8h-96q-48 0 -79 -23t-31 -63v-78q0 -40 31 -63t79 -23h96q32 0 35 27t11 33q10 8 26 8t29 -10t13 -24q0 -42 -24 -79t-86 -37h-100q-78 0 -134 43 t-56 125z" />
<glyph unicode="&#xad;" horiz-adv-x="912" d="M146 462q0 52 62 52h490q68 0 68 -56q0 -22 -19 -36t-49 -14h-490q-62 0 -62 54z" />
<glyph unicode="&#xae;" horiz-adv-x="1224" d="M158 524v222q0 112 29 185t89 111t131 51t177 13h58q216 0 320 -73t104 -287v-222q0 -214 -104 -287t-320 -73h-58q-106 0 -177 13t-131 51t-89 111t-29 185zM262 524q0 -164 69 -210t253 -46h58q182 0 251 46t69 210v222q0 164 -69 210t-251 46h-58q-184 0 -253 -46 t-69 -210v-222zM404 434v388q0 12 12 21t26 9h168q218 0 218 -130q0 -40 -26 -73t-70 -47q28 -24 65 -83t37 -85q0 -12 -13 -20t-27 -8q-18 0 -30 9t-12 17q-6 24 -42 80t-82 84h-142v-162q0 -28 -42 -28q-16 0 -28 8t-12 20zM486 678h124q78 0 107 8t29 36q0 30 -28 39 t-108 9h-124v-92z" />
<glyph unicode="&#xb4;" horiz-adv-x="424" d="M58 1060q0 24 18 46l192 230q28 30 50 30q18 0 34 -15t16 -37t-18 -44l-192 -230q-26 -30 -50 -30q-16 0 -33 15t-17 35z" />
<glyph unicode="&#x2000;" horiz-adv-x="690" />
<glyph unicode="&#x2001;" horiz-adv-x="1380" />
<glyph unicode="&#x2002;" horiz-adv-x="690" />
<glyph unicode="&#x2003;" horiz-adv-x="1380" />
<glyph unicode="&#x2004;" horiz-adv-x="460" />
<glyph unicode="&#x2005;" horiz-adv-x="345" />
<glyph unicode="&#x2006;" horiz-adv-x="230" />
<glyph unicode="&#x2007;" horiz-adv-x="230" />
<glyph unicode="&#x2008;" horiz-adv-x="172" />
<glyph unicode="&#x2009;" horiz-adv-x="276" />
<glyph unicode="&#x200a;" horiz-adv-x="76" />
<glyph unicode="&#x2010;" horiz-adv-x="912" d="M146 462q0 52 62 52h490q68 0 68 -56q0 -22 -19 -36t-49 -14h-490q-62 0 -62 54z" />
<glyph unicode="&#x2011;" horiz-adv-x="912" d="M146 462q0 52 62 52h490q68 0 68 -56q0 -22 -19 -36t-49 -14h-490q-62 0 -62 54z" />
<glyph unicode="&#x2012;" horiz-adv-x="912" d="M146 462q0 52 62 52h490q68 0 68 -56q0 -22 -19 -36t-49 -14h-490q-62 0 -62 54z" />
<glyph unicode="&#x2013;" horiz-adv-x="1048" d="M146 462q0 52 62 52h626q68 0 68 -56q0 -50 -68 -50h-626q-62 0 -62 54z" />
<glyph unicode="&#x2014;" horiz-adv-x="1282" d="M146 462q0 52 62 52h860q68 0 68 -56q0 -50 -68 -50h-860q-62 0 -62 54z" />
<glyph unicode="&#x2018;" horiz-adv-x="404" d="M126 1110q0 90 53 171t91 81q42 0 42 -34q0 -12 -26 -71t-26 -147q0 -22 -20 -36t-50 -14q-64 0 -64 50z" />
<glyph unicode="&#x2019;" horiz-adv-x="404" d="M122 1094q0 10 27 68t27 148q0 52 70 52q62 0 62 -52q0 -94 -54 -172t-88 -78q-44 0 -44 34z" />
<glyph unicode="&#x201c;" horiz-adv-x="650" d="M126 1110q0 90 53 171t91 81q42 0 42 -34q0 -12 -26 -71t-26 -147q0 -22 -20 -36t-50 -14q-64 0 -64 50zM372 1110q0 90 53 171t91 81q42 0 42 -34q0 -12 -26 -71t-26 -147q0 -22 -20 -36t-50 -14q-64 0 -64 50z" />
<glyph unicode="&#x201d;" horiz-adv-x="650" d="M122 1094q0 10 27 68t27 148q0 52 70 52q62 0 62 -52q0 -94 -54 -172t-88 -78q-44 0 -44 34zM368 1094q0 10 27 68t27 148q0 52 70 52q62 0 62 -52q0 -94 -54 -172t-88 -78q-44 0 -44 34z" />
<glyph unicode="&#x2022;" horiz-adv-x="784" d="M112 516q0 116 82 198t198 82t198 -82t82 -198t-82 -198t-198 -82t-198 82t-82 198z" />
<glyph unicode="&#x2026;" horiz-adv-x="1036" d="M130 58q0 34 34 58t68 24q32 0 67 -24t35 -58t-35 -58t-67 -24q-34 0 -68 24t-34 58zM416 58q0 34 34 58t68 24q32 0 67 -24t35 -58t-35 -58t-67 -24q-34 0 -68 24t-34 58zM702 58q0 34 34 58t68 24q32 0 67 -24t35 -58t-35 -58t-67 -24q-34 0 -68 24t-34 58z" />
<glyph unicode="&#x202f;" horiz-adv-x="276" />
<glyph unicode="&#x205f;" horiz-adv-x="345" />
<glyph unicode="&#x20ac;" horiz-adv-x="1122" d="M88 520q0 52 64 52h62v130h-62q-64 0 -64 56q0 50 64 50h62v10q0 222 127 343t329 121h126q64 0 107 -19t62 -54t25 -69t6 -82q0 -70 -52 -70t-52 66q0 70 -24 97t-86 27h-112q-168 0 -260 -93t-92 -267v-10h388q68 0 68 -54q0 -52 -68 -52h-388v-130h388q68 0 68 -56 q0 -50 -68 -50h-388v-12q0 -176 92 -268t260 -92h112q64 0 87 28t23 96q0 66 52 66t52 -72q0 -46 -6 -80t-25 -69t-62 -54t-107 -19h-126q-202 0 -329 121t-127 343v12h-62q-64 0 -64 54z" />
<glyph unicode="&#x2122;" horiz-adv-x="1306" d="M106 1314q0 52 66 52h296q66 0 66 -54q0 -50 -66 -50h-96v-394q0 -64 -52 -64t-52 64v394h-96q-66 0 -66 52zM582 872v436q0 72 54 72q44 0 62 -40l164 -364l164 366q18 38 62 38q54 0 54 -72v-434q0 -70 -52 -70t-52 70v276l-142 -328q-18 -18 -34 -18q-26 0 -34 18 l-142 328v-278q0 -68 -52 -68t-52 68z" />
<glyph unicode="&#xe000;" horiz-adv-x="945" d="M0 945h945v-945h-945v945z" />
</font>
</defs>
</svg>
