<?xml version="1.0" standalone="no"?>
<!DOCTYPE svg PUBLIC "-//W3C//DTD SVG 1.1//EN" "http://www.w3.org/Graphics/SVG/1.1/DTD/svg11.dtd" >
<svg xmlns="http://www.w3.org/2000/svg">
<metadata>
This is a custom SVG webfont generated by Font Squirrel.
Copyright   : Copyright 2009 2010 2011 by Daniel Johnson  Released under the terms of the Open Font License
</metadata>
<defs>
<font id="JuraLight" horiz-adv-x="892" >
<font-face units-per-em="2048" ascent="1638" descent="-410" />
<missing-glyph horiz-adv-x="520" />
<glyph unicode=" "  horiz-adv-x="520" />
<glyph unicode="&#x09;" horiz-adv-x="520" />
<glyph unicode="&#xa0;" horiz-adv-x="520" />
<glyph unicode="!" horiz-adv-x="468" d="M142 58q0 28 31 50t61 22q32 0 63 -22t31 -50t-31 -50t-63 -22q-30 0 -61 22t-31 50zM192 394v838q0 56 42 56t42 -56v-838q0 -56 -44 -56q-40 0 -40 56z" />
<glyph unicode="&#x22;" horiz-adv-x="570" d="M142 932v298q0 56 42 56q40 0 40 -56v-298q0 -56 -42 -56q-40 0 -40 56zM344 932v298q0 56 42 56t42 -56v-298q0 -56 -44 -56q-40 0 -40 56z" />
<glyph unicode="#" horiz-adv-x="1190" d="M90 452q0 42 56 42h178l102 284h-220q-54 0 -54 44q0 40 54 40h250l128 346q15 42 42 42q42 0 42 -40q0 -12 -6 -30l-118 -318h268l128 346q16 42 44 42q18 0 30 -12t12 -30q0 -12 -6 -28l-116 -318h140q56 0 56 -42t-56 -42h-172l-102 -284h212q56 0 56 -44 q0 -40 -56 -40h-242l-128 -346q-14 -42 -44 -42q-42 0 -42 42q0 12 6 28l118 318h-270l-126 -346q-14 -42 -44 -42q-40 0 -40 40q0 12 6 30l116 318h-146q-56 0 -56 42zM412 494h268l102 284h-268z" />
<glyph unicode="$" horiz-adv-x="1134" d="M122 868q0 116 57 176t191 60h164v126q0 56 42 56t42 -56v-126h202q62 0 103 -18t58 -52t23 -66t6 -78q0 -60 -42 -60t-42 56q0 72 -26 103t-94 31h-188v-324h150q246 0 246 -268q0 -246 -246 -246h-150v-142q0 -54 -44 -54q-40 0 -40 54v142h-222q-62 0 -103 18t-58 52 t-23 66t-6 78q0 60 42 60t42 -56q0 -72 26 -103t94 -31h208v346h-164q-248 0 -248 256zM206 868q0 -82 36 -127t92 -45h200v324h-200q-128 0 -128 -152zM618 266h184q128 0 128 162q0 84 -36 134t-92 50h-184v-346z" />
<glyph unicode="%" horiz-adv-x="1080" d="M138 292q0 20 22 42l700 700q26 22 42 22q14 0 27 -12t13 -28t-22 -42l-700 -700q-22 -22 -42 -22q-14 0 -27 12t-13 28zM162 942q0 64 46 109t110 45q62 0 107 -45t45 -109t-45 -109t-107 -45q-64 0 -110 45t-46 109zM248 942q0 -28 21 -49t49 -21t49 21t21 49t-21 49 t-49 21t-49 -21t-21 -49zM610 366q0 62 45 108t109 46t109 -46t45 -108t-45 -108t-109 -46t-109 46t-45 108zM694 366q0 -28 21 -49t49 -21q30 0 50 21t20 49q0 30 -20 50t-50 20q-28 0 -49 -20t-21 -50z" />
<glyph unicode="&#x26;" horiz-adv-x="988" d="M74 364q0 98 43 194t129 154l-28 34q-94 108 -94 206q0 148 111 245t239 97q78 0 146 -57t98 -110t30 -71q0 -16 -12 -28t-30 -12q-20 0 -42 30t-41 67t-60 67t-93 30q-98 0 -178 -71t-80 -187q0 -74 78 -164l480 -554q68 94 68 220q0 62 44 62q38 0 38 -62 q0 -160 -92 -286l96 -110q12 -14 12 -36q0 -36 -34 -36q-26 0 -52 28l-78 90q-132 -122 -290 -122q-66 0 -134 20t-131 62t-103 120t-40 180zM158 364q0 -154 100 -226t224 -72q128 0 236 102l-416 482q-74 -42 -109 -122t-35 -164z" />
<glyph unicode="'" horiz-adv-x="366" d="M142 932v298q0 56 42 56q40 0 40 -56v-298q0 -56 -42 -56q-40 0 -40 56z" />
<glyph unicode="(" horiz-adv-x="474" d="M146 266v740q0 148 27 225t75 101t138 24v-84q-108 0 -132 -41t-24 -225v-740q0 -184 24 -225t132 -41v-84q-90 0 -138 24t-75 101t-27 225z" />
<glyph unicode=")" horiz-adv-x="472" d="M88 0q106 0 130 41t24 225v740q0 184 -24 225t-130 41v84q134 0 186 -67t52 -283v-740q0 -216 -52 -283t-186 -67v84z" />
<glyph unicode="*" horiz-adv-x="774" d="M130 858q0 24 32 44l140 82l-140 78q-32 20 -32 44q0 10 9 25t29 15q12 0 36 -10l140 -82v162q0 56 44 56q40 0 40 -56v-162l140 82q24 10 36 10q16 0 28 -13t12 -27q0 -22 -34 -44l-138 -78l138 -82q34 -22 34 -44q0 -10 -10 -25t-30 -15q-12 0 -36 10l-140 82v-162 q0 -56 -42 -56t-42 56v162l-140 -82q-24 -10 -36 -10q-16 0 -27 13t-11 27z" />
<glyph unicode="+" horiz-adv-x="1020" d="M78 462q0 42 52 42h338v376q0 56 44 56q40 0 40 -56v-376h334q58 0 58 -46q0 -40 -58 -40h-334v-378q0 -54 -42 -54t-42 54v378h-338q-52 0 -52 44z" />
<glyph unicode="," horiz-adv-x="406" d="M100 -120q0 12 6 30l48 172q12 40 40 40q20 0 46 -10t26 -30q0 -18 -8 -34l-84 -166q-18 -42 -40 -42q-34 0 -34 40z" />
<glyph unicode="-" d="M146 462q0 42 52 42h490q58 0 58 -46q0 -40 -58 -40h-490q-52 0 -52 44z" />
<glyph unicode="." horiz-adv-x="448" d="M132 58q0 28 30 50t62 22q30 0 61 -22t31 -50t-31 -50t-61 -22q-32 0 -62 22t-30 50z" />
<glyph unicode="/" horiz-adv-x="698" d="M86 22q0 10 6 32l436 1196q12 40 40 40q44 0 44 -38q0 -14 -6 -32l-436 -1196q-12 -40 -42 -40q-42 0 -42 38z" />
<glyph unicode="0" horiz-adv-x="1196" d="M154 308v656q0 136 98 222t242 86h208q144 0 242 -86t98 -222v-656q0 -136 -98 -222t-242 -86h-208q-144 0 -242 86t-98 222zM238 276q0 -74 70 -133t170 -59h240q100 0 170 59t70 133v718q0 74 -70 133t-170 59h-240q-100 0 -170 -59t-70 -133v-718z" />
<glyph unicode="1" horiz-adv-x="486" d="M70 1176q0 22 24 44l124 126q24 24 48 24q8 0 17 -3t18 -14t9 -29v-1284q0 -54 -42 -54t-42 54v1192l-68 -66q-24 -26 -50 -26q-38 0 -38 36z" />
<glyph unicode="2" horiz-adv-x="1136" d="M124 1058q0 116 44 165t146 49h284q102 0 171 -13t128 -49t87 -108t28 -182q0 -98 -83 -178t-200 -142l-235 -127q-118 -65 -201 -165t-83 -224h742q60 0 60 -44q0 -40 -60 -40h-826v88q0 102 44 188t115 143t157 107t171 92t156 85t115 98t44 119q0 172 -72 220t-258 48 h-270q-68 0 -94 -30t-26 -100q0 -60 -44 -60q-40 0 -40 60z" />
<glyph unicode="3" horiz-adv-x="1152" d="M126 212q0 62 42 62t42 -56q0 -64 95 -99t185 -35h160q160 0 221 65t61 183q0 100 -131 188t-241 88q-64 0 -64 44q0 42 64 42q114 0 243 75t129 171q0 118 -61 183t-221 65h-160q-90 0 -185 -35t-95 -99q0 -56 -42 -56t-42 60q0 84 94 149t256 65h154q208 0 296 -82 t88 -288q0 -70 -97 -153t-163 -97q64 -12 162 -110t98 -172q0 -206 -88 -288t-296 -82h-154q-162 0 -256 65t-94 147z" />
<glyph unicode="4" horiz-adv-x="1026" d="M64 350v112l606 810h114v-838h122q54 0 54 -42t-54 -42h-122v-310q0 -54 -42 -54t-42 54v310h-636zM138 434h562v754z" />
<glyph unicode="5" horiz-adv-x="1096" d="M126 180q0 16 12 29t26 13q6 0 61 -39t144 -78t181 -39q170 0 265 103t95 285q0 88 -32 156t-81 104t-99 53t-98 17h-462l18 240q12 138 60 193t158 55h482q54 0 54 -44q0 -40 -54 -40h-494q-56 0 -84 -30t-34 -100l-12 -190h350q160 0 286 -113t126 -301 q0 -220 -125 -346t-319 -126q-124 0 -274 69t-150 129z" />
<glyph unicode="6" horiz-adv-x="1072" d="M104 414q0 178 43 332t103 249t128 165t117 99t69 29q44 0 44 -36q0 -26 -36 -46q-106 -58 -203 -182t-145 -306q128 128 324 128q190 0 317 -122t127 -310t-127 -310t-317 -122t-317 122t-127 310zM188 414q0 -156 97 -252t263 -96t263 96t97 252t-97 252t-263 96 t-263 -96t-97 -252z" />
<glyph unicode="7" horiz-adv-x="956" d="M58 1058q0 116 44 165t146 49h620q42 0 42 -36q0 -16 -8 -38l-426 -1172q-16 -46 -42 -46q-44 0 -44 38q0 16 8 38l412 1132h-546q-68 0 -95 -30t-27 -100q0 -60 -42 -60t-42 60z" />
<glyph unicode="8" horiz-adv-x="1184" d="M148 348q0 230 140 304q-140 64 -140 292q0 90 21 151t52 96t90 53t113 23t140 5h58q86 0 140 -5t112 -23t89 -53t52 -96t21 -151q0 -230 -138 -292q138 -72 138 -304q0 -110 -28 -181t-87 -107t-128 -48t-171 -12h-58q-212 0 -314 69t-102 279zM232 348q0 -72 14 -121 t37 -77t68 -43t91 -19t122 -4h58q94 0 147 7t100 33t65 80t18 144t-19 144t-65 81t-99 34t-147 7h-58q-96 0 -149 -7t-99 -34t-65 -81t-19 -144zM232 944q0 -60 8 -103t30 -70t43 -42t67 -22t80 -8t104 -1h58q70 0 103 1t80 8t67 22t42 42t30 70t8 103q0 72 -15 119t-35 72 t-70 37t-88 14t-122 2h-58q-84 0 -122 -2t-89 -14t-71 -37t-35 -72t-15 -119z" />
<glyph unicode="9" horiz-adv-x="1074" d="M84 942q0 106 51 178t135 102t150 40t138 10q414 0 414 -332q0 -214 -61 -400t-159 -309t-220 -193t-246 -70q-52 0 -52 44q0 42 52 42q70 0 153 37t169 110t156 201t102 288q-100 -76 -308 -76q-474 0 -474 328zM168 942q0 -64 26 -111t63 -72t94 -40t102 -18t105 -3 q330 0 330 242q0 248 -330 248q-390 0 -390 -246z" />
<glyph unicode=":" horiz-adv-x="476" d="M146 160q0 28 30 50t62 22q30 0 61 -22t31 -50t-31 -50t-61 -22q-32 0 -62 22t-30 50zM146 866q0 28 30 50t62 22q30 0 61 -22t31 -50t-31 -50t-61 -22q-32 0 -62 22t-30 50z" />
<glyph unicode=";" horiz-adv-x="482" d="M146 866q0 28 30 50t62 22q30 0 61 -22t31 -50t-31 -50t-61 -22q-32 0 -62 22t-30 50zM160 -18q0 12 6 30l48 172q12 40 40 40q20 0 46 -10t26 -30q0 -18 -8 -34l-84 -166q-18 -42 -40 -42q-34 0 -34 40z" />
<glyph unicode="&#x3c;" horiz-adv-x="1044" d="M66 666q0 24 32 42l726 420q18 10 36 10q40 0 40 -36q0 -24 -32 -48l-678 -388l676 -392q34 -18 34 -42q0 -12 -9 -28t-29 -16q-14 0 -38 12l-726 420q-32 22 -32 46z" />
<glyph unicode="=" horiz-adv-x="916" d="M158 562q0 42 52 42h490q58 0 58 -46q0 -40 -58 -40h-490q-52 0 -52 44zM158 768q0 42 52 42h490q58 0 58 -46q0 -40 -58 -40h-490q-52 0 -52 44z" />
<glyph unicode="&#x3e;" horiz-adv-x="1044" d="M144 226q0 26 32 46l678 390l-676 390q-34 18 -34 44q0 12 9 27t29 15q15 0 36 -12l728 -420q32 -22 32 -44q0 -26 -32 -44l-728 -420q-14 -10 -34 -10q-40 0 -40 38z" />
<glyph unicode="?" horiz-adv-x="1056" d="M78 942q0 110 28 181t89 106t129 47t172 12h152q172 0 247 -94t75 -226t-55 -202t-191 -108l-188 -52v-218q0 -56 -42 -56t-42 56v280l306 84q56 16 92 74t36 142q0 88 -49 162t-155 74h-186q-96 0 -149 -7t-100 -32t-65 -79t-18 -144q0 -56 -42 -56q-44 0 -44 56z M402 58q0 28 30 50t62 22q30 0 61 -22t31 -50t-31 -50t-61 -22q-32 0 -62 22t-30 50z" />
<glyph unicode="@" horiz-adv-x="1168" d="M142 482v308q0 226 113 354t303 128h58q190 0 303 -128t113 -354q0 -62 -2 -102t-12 -88t-27 -77t-49 -60t-78 -47t-114 -26t-156 -10q-140 0 -191 65t-51 219q0 152 51 217t191 65q142 0 193 -65t51 -217q0 -114 -26 -178q56 12 82 36t40 86t14 182q0 188 -84 293 t-248 105h-58q-164 0 -248 -105t-84 -293v-308q0 -188 84 -293t248 -105h268q68 0 95 30t27 104q0 56 40 56q44 0 44 -62q0 -44 -6 -76t-24 -66t-59 -52t-103 -18h-282q-190 0 -303 128t-113 354zM436 664q0 -118 28 -159t130 -41q104 0 132 41t28 159q0 116 -28 157 t-132 41q-102 0 -130 -41t-28 -157z" />
<glyph unicode="A" horiz-adv-x="1096" d="M46 8q0 12 6 28l450 1236h92l450 -1236q6 -16 6 -28q0 -40 -42 -40q-28 0 -44 40l-144 400h-544l-144 -400q-18 -40 -44 -40q-42 0 -42 40zM308 492h480l-242 658z" />
<glyph unicode="B" horiz-adv-x="1168" d="M168 62v1148q0 62 38 62h352q206 0 310 -64t104 -236q0 -168 -110 -238q98 -30 146 -106t48 -220v-58q0 -210 -102 -280t-312 -70h-436q-38 0 -38 62zM252 84h390q94 0 147 7t99 34t65 81t19 144v58q0 90 -19 144t-65 81t-99 34t-147 7h-390v-590zM252 758h306 q180 0 255 42t75 172q0 132 -75 174t-255 42h-306v-430z" />
<glyph unicode="C" horiz-adv-x="1144" d="M144 350v572q0 210 102 280t314 70h282q62 0 103 -18t58 -52t23 -66t6 -78q0 -60 -42 -60t-42 56q0 72 -26 103t-94 31h-268q-96 0 -149 -7t-99 -34t-65 -81t-19 -144v-572q0 -90 19 -144t65 -81t99 -34t149 -7h268q68 0 94 30t26 104q0 56 42 56t42 -62q0 -44 -6 -76 t-23 -66t-58 -52t-103 -18h-282q-212 0 -314 70t-102 280z" />
<glyph unicode="D" horiz-adv-x="1200" d="M168 62v1148q0 62 38 62h436q210 0 312 -70t102 -280v-572q0 -210 -102 -280t-312 -70h-436q-38 0 -38 62zM252 84h390q94 0 147 7t99 34t65 81t19 144v572q0 90 -19 144t-65 81t-99 34t-147 7h-390v-1104z" />
<glyph unicode="E" horiz-adv-x="1154" d="M168 62v1148q0 62 38 62h792q58 0 58 -46q0 -38 -58 -38h-746v-430h510q60 0 60 -46q0 -38 -60 -38h-510v-590h746q58 0 58 -46q0 -38 -58 -38h-792q-38 0 -38 62z" />
<glyph unicode="F" horiz-adv-x="1116" d="M168 46v1164q0 62 38 62h792q58 0 58 -46q0 -38 -58 -38h-746v-430h510q60 0 60 -46q0 -38 -60 -38h-510v-628q0 -60 -42 -60t-42 60z" />
<glyph unicode="G" horiz-adv-x="1170" d="M144 350v572q0 110 28 182t88 108t128 48t172 12h282q62 0 103 -18t58 -52t23 -66t6 -76q0 -62 -42 -62t-42 58q0 72 -26 102t-94 30h-268q-96 0 -149 -7t-99 -34t-65 -81t-19 -144v-572q0 -90 19 -144t65 -81t99 -34t149 -7h268q68 0 94 30t26 102v286h-266 q-60 0 -60 40q0 44 60 44h350v-374q0 -44 -6 -76t-23 -66t-58 -52t-103 -18h-282q-104 0 -172 12t-128 48t-88 108t-28 182z" />
<glyph unicode="H" horiz-adv-x="1224" d="M168 46v1178q0 62 38 62q46 0 46 -62v-496h720v496q0 62 40 62q44 0 44 -62v-1178q0 -60 -40 -60q-44 0 -44 60v598h-720v-598q0 -60 -42 -60t-42 60z" />
<glyph unicode="I" horiz-adv-x="420" d="M168 40v1190q0 56 42 56t42 -56v-1190q0 -54 -44 -54q-40 0 -40 54z" />
<glyph unicode="J" horiz-adv-x="1060" d="M64 334q0 56 46 56q40 0 40 -56q0 -172 72 -219t260 -47q96 0 149 7t99 34t65 81t19 144v896q0 56 42 56t42 -56v-896q0 -110 -28 -182t-88 -108t-128 -48t-172 -12t-173 12t-129 48t-88 108t-28 182z" />
<glyph unicode="K" horiz-adv-x="994" d="M168 40v1190q0 56 42 56t42 -56v-588l520 618q20 26 42 26q14 0 27 -11t13 -27q0 -21 -18 -42l-412 -492l544 -648q20 -20 20 -40q0 -16 -14 -28t-28 -12q-22 0 -42 26l-536 638l-116 -140v-470q0 -54 -44 -54q-40 0 -40 54z" />
<glyph unicode="L" horiz-adv-x="990" d="M168 62v1168q0 56 42 56t42 -56v-1146h636q56 0 56 -44q0 -40 -56 -40h-682q-38 0 -38 62z" />
<glyph unicode="M" horiz-adv-x="1266" d="M168 46v1178q0 62 38 62q30 0 52 -34l374 -568l376 568q22 34 50 34q40 0 40 -62v-1178q0 -60 -44 -60q-40 0 -40 60v1068l-356 -544q-10 -12 -26 -12q-14 0 -24 12l-356 544v-1068q0 -60 -42 -60t-42 60z" />
<glyph unicode="N" horiz-adv-x="1224" d="M168 46v1178q0 62 38 62q30 0 52 -34l714 -1084v1056q0 62 40 62q44 0 44 -62v-1178q0 -60 -40 -60q-24 0 -32 14l-732 1114v-1068q0 -60 -42 -60t-42 60z" />
<glyph unicode="O" horiz-adv-x="1148" d="M130 454v364q0 220 125 346t319 126t319 -126t125 -346v-364q0 -220 -125 -346t-319 -126t-319 126t-125 346zM214 454q0 -182 96 -285t264 -103t264 103t96 285v364q0 182 -96 285t-264 103t-264 -103t-96 -285v-364z" />
<glyph unicode="P" horiz-adv-x="1040" d="M168 40v1170q0 62 38 62h352q206 0 310 -64t104 -236q0 -146 -87 -222t-243 -76h-390v-634q0 -54 -44 -54q-40 0 -40 54zM252 758h306q180 0 255 42t75 172q0 132 -75 174t-255 42h-306v-430z" />
<glyph unicode="Q" horiz-adv-x="1148" d="M130 454v364q0 220 125 346t319 126t319 -126t125 -346v-364q0 -198 -102 -320l76 -76q20 -20 20 -42q0 -14 -11 -27t-27 -13t-42 22l-74 76q-120 -92 -284 -92q-194 0 -319 126t-125 346zM214 454q0 -182 96 -285t264 -103q138 0 224 68l-116 114q-22 22 -22 40 q0 14 12 28t28 14q20 0 42 -22l116 -118q76 100 76 264v364q0 182 -96 285t-264 103t-264 -103t-96 -285v-364z" />
<glyph unicode="R" horiz-adv-x="1098" d="M168 40v1170q0 62 38 62h352q206 0 310 -64t104 -236q0 -126 -64 -200t-182 -92q66 -52 131 -209t98 -282t33 -149q0 -54 -44 -54q-18 0 -29 16t-11 38q0 28 -28 142t-96 270t-152 222h-376v-634q0 -54 -44 -54q-40 0 -40 54zM252 758h306q180 0 255 42t75 172 q0 132 -75 174t-255 42h-306v-430z" />
<glyph unicode="S" horiz-adv-x="1140" d="M124 334q0 56 46 56q40 0 40 -56q0 -172 72 -219t260 -47h186q106 0 155 76t49 164q0 102 -41 168t-87 76l-432 106q-136 32 -192 104t-56 206q0 132 76 226t248 94h152q104 0 172 -12t128 -47t88 -106t28 -181q0 -56 -44 -56q-42 0 -42 56q0 90 -18 144t-65 79t-99 32 t-148 7h-188q-106 0 -155 -75t-49 -161q0 -84 37 -143t91 -73l434 -104q246 -62 246 -340q0 -132 -75 -228t-247 -96h-152q-104 0 -173 12t-129 48t-88 108t-28 182z" />
<glyph unicode="T" horiz-adv-x="920" d="M52 1230q0 42 56 42h702q56 0 56 -44q0 -40 -56 -40h-308v-1148q0 -54 -44 -54q-40 0 -40 54v1148h-310q-56 0 -56 42z" />
<glyph unicode="U" horiz-adv-x="1196" d="M154 454v776q0 56 42 56t42 -56v-776q0 -182 96 -285t264 -103t264 103t96 285v776q0 56 44 56q40 0 40 -56v-776q0 -220 -125 -346t-319 -126t-319 126t-125 346z" />
<glyph unicode="V" horiz-adv-x="1096" d="M46 1264q0 14 9 24t18 13t15 3q26 0 44 -40l416 -1144l416 1144q16 40 44 40q6 0 15 -3t18 -13t9 -24q0 -12 -6 -30l-450 -1234h-92l-450 1234q-6 18 -6 30z" />
<glyph unicode="W" horiz-adv-x="1784" d="M48 1264q0 14 11 24t21 13t16 3q26 0 38 -40l356 -1144l352 1140q14 44 46 44q36 0 50 -44l354 -1140l352 1144q16 40 40 40q6 0 16 -3t20 -13t10 -24q0 -12 -6 -30l-384 -1234h-100l-352 1130l-350 -1130h-98l-376 1234q-2 6 -9 16t-7 14z" />
<glyph unicode="X" horiz-adv-x="1074" d="M70 24q0 18 14 40l402 570l-402 574q-14 16 -14 38q0 16 13 28t27 12q22 0 44 -32l382 -546l384 546q22 32 42 32q14 0 28 -12t14 -28q0 -22 -14 -38l-402 -574l402 -570q14 -22 14 -40q0 -16 -13 -27t-29 -11q-20 0 -42 28l-384 548l-382 -548q-22 -28 -44 -28 q-14 0 -27 11t-13 27z" />
<glyph unicode="Y" horiz-adv-x="998" d="M32 1246q0 16 13 28t27 12q20 0 42 -32l384 -546l382 546q26 32 44 32q14 0 27 -12t13 -28q0 -18 -14 -38l-410 -588v-580q0 -54 -42 -54q-40 0 -40 54v580l-412 588q-14 20 -14 38z" />
<glyph unicode="Z" horiz-adv-x="1070" d="M90 1230q0 42 62 42h826v-92l-788 -1096h728q60 0 60 -44q0 -40 -60 -40h-826v88l792 1100h-732q-62 0 -62 42z" />
<glyph unicode="[" horiz-adv-x="488" d="M160 -84v1440h240v-84h-156v-1272h156v-84h-240z" />
<glyph unicode="\" horiz-adv-x="698" d="M86 1252q0 38 42 38q30 0 42 -40l436 -1196q6 -22 6 -32q0 -38 -44 -38q-28 0 -40 40l-436 1196q-6 18 -6 32z" />
<glyph unicode="]" horiz-adv-x="488" d="M88 0h156v1272h-156v84h240v-1440h-240v84z" />
<glyph unicode="^" horiz-adv-x="886" d="M170 766q0 4 4 20l216 486h108l214 -486q4 -8 4 -20q0 -36 -36 -36q-30 0 -48 36l-186 414h-6l-186 -414q-18 -36 -48 -36q-36 0 -36 36z" />
<glyph unicode="_" horiz-adv-x="950" d="M0 -40q0 40 56 40h838q56 0 56 -44q0 -40 -56 -40h-838q-56 0 -56 44z" />
<glyph unicode="`" horiz-adv-x="424" d="M68 1314q0 18 13 30t27 12q18 0 42 -26l192 -230q16 -18 16 -40q0 -16 -13 -28t-27 -12q-18 0 -42 26l-192 230q-16 18 -16 38z" />
<glyph unicode="a" horiz-adv-x="1068" d="M120 240q0 84 20 146t54 99t88 58t114 29t140 8h304v128q0 70 -26 100t-94 30h-282q-234 0 -234 -130q0 -60 -44 -60q-40 0 -40 60q0 108 85 161t219 53h310q110 0 150 -54t40 -194v-628q0 -60 -42 -60t-42 60v98q-108 -144 -330 -144h-186q-90 0 -147 65t-57 175z M204 230q0 -56 37 -101t83 -45h186q158 0 244 96t86 276v40h-304q-96 0 -149 -7t-99 -34t-65 -81t-19 -144z" />
<glyph unicode="b" horiz-adv-x="1160" d="M148 46v1178q0 62 38 62q46 0 46 -62v-446q112 144 332 144h58q210 0 312 -70t102 -280v-222q0 -210 -102 -280t-312 -70h-58q-220 0 -332 144v-98q0 -60 -42 -60t-42 60zM232 456q0 -180 86 -276t246 -96h58q94 0 147 7t99 34t65 81t19 144v222q0 90 -19 144t-65 81 t-99 34t-147 7h-58q-160 0 -246 -97t-86 -277v-8z" />
<glyph unicode="c" horiz-adv-x="1128" d="M124 350v222q0 210 102 280t314 70h282q62 0 103 -18t58 -53t23 -66t6 -77q0 -60 -42 -60t-42 56q0 72 -26 103t-94 31h-268q-96 0 -149 -7t-99 -34t-65 -81t-19 -144v-222q0 -90 19 -144t65 -81t99 -34t149 -7h268q68 0 94 30t26 104q0 56 42 56t42 -62q0 -44 -6 -76 t-23 -66t-58 -52t-103 -18h-282q-212 0 -314 70t-102 280z" />
<glyph unicode="d" horiz-adv-x="1160" d="M124 350v222q0 210 102 280t314 70h388v302q0 62 46 62q38 0 38 -62v-1178q0 -60 -42 -60t-42 60v98q-108 -144 -330 -144h-58q-212 0 -314 70t-102 280zM208 350q0 -90 19 -144t65 -81t99 -34t149 -7h58q158 0 244 96t86 276v382h-388q-96 0 -149 -7t-99 -34t-65 -81 t-19 -144v-222z" />
<glyph unicode="e" horiz-adv-x="1132" d="M124 350v222q0 210 102 280t314 70h58q210 0 312 -70t102 -280v-72h-804v-150q0 -90 19 -144t65 -81t99 -34t149 -7h268q68 0 94 30t26 104q0 56 42 56t42 -62q0 -44 -6 -76t-23 -66t-58 -52t-103 -18h-282q-212 0 -314 70t-102 280zM208 584h720q0 162 -74 208t-256 46 h-58q-184 0 -258 -46t-74 -208z" />
<glyph unicode="f" horiz-adv-x="626" d="M96 882q0 40 62 40q0 112 28 183t88 107t128 48t172 12q62 0 62 -46q0 -38 -62 -38q-96 0 -149 -7t-99 -34t-65 -81t-19 -144h286q62 0 62 -46q0 -38 -62 -38h-286v-790q0 -62 -46 -62q-38 0 -38 62v790q-62 0 -62 44z" />
<glyph unicode="g" horiz-adv-x="1162" d="M124 350v222q0 210 102 280t314 70h58q222 0 330 -144v98q0 60 42 60t42 -60v-1060q0 -128 -36 -177t-136 -49h-526q-62 0 -103 18t-58 53t-23 66t-6 77q0 60 42 60t42 -56q0 -72 26 -103t94 -31h498q62 0 82 23t20 87v234q-40 -18 -106 -18h-282q-212 0 -314 70 t-102 280zM208 350q0 -90 19 -144t65 -81t99 -34t149 -7h268q68 0 94 29t26 99v252q0 180 -86 277t-244 97h-58q-96 0 -149 -7t-99 -34t-65 -81t-19 -144v-222z" />
<glyph unicode="h" horiz-adv-x="1176" d="M148 46v1178q0 62 38 62q46 0 46 -62v-446q112 144 332 144h58q210 0 312 -70t102 -280v-526q0 -60 -40 -60q-44 0 -44 60v526q0 90 -19 144t-65 81t-99 34t-147 7h-58q-160 0 -246 -97t-86 -277v-418q0 -60 -42 -60t-42 60z" />
<glyph unicode="i" horiz-adv-x="380" d="M98 1202q0 28 30 50t62 22q30 0 61 -22t31 -50t-31 -50t-61 -22q-32 0 -62 22t-30 50zM148 40v840q0 56 42 56t42 -56v-840q0 -54 -44 -54q-40 0 -40 54z" />
<glyph unicode="j" horiz-adv-x="384" d="M-244 -306q0 40 62 40q96 0 149 7t99 34t65 81t19 144v874q0 62 44 62q40 0 40 -62v-874q0 -112 -28 -184t-88 -107t-128 -47t-172 -12q-62 0 -62 44zM100 1202q0 28 31 50t61 22q32 0 62 -22t30 -50t-30 -50t-62 -22q-30 0 -61 22t-31 50z" />
<glyph unicode="k" horiz-adv-x="866" d="M148 40v1190q0 56 42 56t42 -56v-706l384 386q26 22 42 22q14 0 27 -12t13 -30t-22 -40l-318 -318l464 -462q20 -20 20 -42q0 -14 -11 -27t-27 -13q-20 0 -42 22l-462 464l-68 -68v-366q0 -54 -44 -54q-40 0 -40 54z" />
<glyph unicode="l" horiz-adv-x="520" d="M180 248v978q0 60 42 60t42 -60v-1014q0 -70 26 -99t94 -29q60 0 60 -44q0 -40 -60 -40h-14q-110 0 -150 54t-40 194z" />
<glyph unicode="m" horiz-adv-x="1624" d="M148 46v828q0 62 38 62q46 0 46 -62v-96q60 78 118 111t152 33q134 0 216 -36t116 -138q94 174 292 174q178 0 267 -70t89 -280v-526q0 -60 -42 -60t-42 60v526q0 90 -14 144t-52 81t-82 34t-124 7q-128 0 -199 -97t-71 -277v-418q0 -60 -40 -60q-44 0 -44 60v526 q0 90 -14 144t-52 81t-81 34t-123 7q-128 0 -199 -97t-71 -277v-418q0 -60 -42 -60t-42 60z" />
<glyph unicode="n" horiz-adv-x="1174" d="M148 46v828q0 62 38 62q46 0 46 -62v-96q112 144 332 144h58q210 0 312 -70t102 -280v-526q0 -60 -40 -60q-44 0 -44 60v526q0 90 -19 144t-65 81t-99 34t-147 7h-58q-160 0 -246 -97t-86 -277v-418q0 -60 -42 -60t-42 60z" />
<glyph unicode="o" horiz-adv-x="1136" d="M124 350v222q0 210 102 280t314 70h58q210 0 312 -70t102 -280v-222q0 -210 -102 -280t-312 -70h-58q-212 0 -314 70t-102 280zM208 350q0 -90 19 -144t65 -81t99 -34t149 -7h58q94 0 147 7t99 34t65 81t19 144v222q0 90 -19 144t-65 81t-99 34t-147 7h-58q-96 0 -149 -7 t-99 -34t-65 -81t-19 -144v-222z" />
<glyph unicode="p" horiz-adv-x="1162" d="M150 -304v1180q0 60 42 60t42 -60v-98q112 144 332 144h58q210 0 312 -70t102 -280v-222q0 -210 -102 -280t-312 -70h-390v-304q0 -60 -46 -60q-38 0 -38 60zM234 84h390q94 0 147 7t99 34t65 81t19 144v222q0 90 -19 144t-65 81t-99 34t-147 7h-58q-160 0 -246 -97 t-86 -277v-380z" />
<glyph unicode="q" horiz-adv-x="1162" d="M124 350v222q0 210 102 280t314 70h58q222 0 330 -144v98q0 60 42 60t42 -60v-1180q0 -60 -38 -60q-46 0 -46 60v304h-388q-212 0 -314 70t-102 280zM208 350q0 -90 19 -144t65 -81t99 -34t149 -7h388v380q0 180 -86 277t-244 97h-58q-96 0 -149 -7t-99 -34t-65 -81 t-19 -144v-222z" />
<glyph unicode="r" horiz-adv-x="744" d="M148 46v828q0 62 38 62q46 0 46 -62v-96q112 144 332 144h92q60 0 60 -42t-60 -42h-92q-160 0 -246 -97t-86 -277v-418q0 -60 -42 -60t-42 60z" />
<glyph unicode="s" horiz-adv-x="1132" d="M120 686q0 116 57 176t191 60h450q62 0 103 -18t58 -53t23 -66t6 -77q0 -60 -42 -60t-42 56q0 72 -26 103t-94 31h-472q-128 0 -128 -152q0 -82 36 -127t92 -45h434q246 0 246 -268q0 -246 -246 -246h-456q-62 0 -103 18t-58 52t-23 66t-6 76q0 62 42 62t42 -56 q0 -74 26 -104t94 -30h476q128 0 128 162q0 84 -36 134t-92 50h-432q-248 0 -248 256z" />
<glyph unicode="t" horiz-adv-x="660" d="M92 882q0 40 62 40v218q0 62 38 62q46 0 46 -62v-218h286q62 0 62 -46q0 -38 -62 -38h-286v-488q0 -90 19 -144t65 -81t99 -34t149 -7q60 0 60 -38q0 -46 -60 -46q-102 0 -172 13t-129 49t-87 107t-28 181v488q-62 0 -62 44z" />
<glyph unicode="u" horiz-adv-x="1176" d="M140 350v526q0 60 40 60q44 0 44 -60v-526q0 -90 19 -144t65 -81t99 -34t149 -7h58q158 0 244 96t86 276v420q0 60 42 60t42 -60v-828q0 -62 -38 -62q-46 0 -46 62v96q-108 -144 -330 -144h-58q-212 0 -314 70t-102 280z" />
<glyph unicode="v" horiz-adv-x="998" d="M56 898q0 16 11 27t27 11q30 0 46 -38l346 -806h14l360 808q18 36 46 36q38 0 38 -36q0 -16 -6 -22l-386 -878h-128l-362 878q-6 4 -6 20z" />
<glyph unicode="w" horiz-adv-x="1542" d="M62 898q0 14 20 26t34 12q20 0 34 -38l278 -806h12l288 808q6 34 46 34q32 0 42 -34l276 -808h12l290 808q12 36 34 36q16 0 35 -11t19 -25q0 -16 -6 -22l-310 -878h-142l-252 768l-272 -768h-142l-290 878q-6 4 -6 20z" />
<glyph unicode="x" horiz-adv-x="976" d="M76 16q0 16 18 42l340 402l-340 406q-18 22 -18 40q0 16 13 27t27 11q21 0 42 -24l332 -394l330 394q20 24 40 24q14 0 27 -11t13 -27q0 -18 -18 -40l-340 -406l340 -402q18 -26 18 -42t-13 -27t-27 -11q-20 0 -40 24l-330 394l-332 -394q-21 -24 -42 -24q-14 0 -27 11 t-13 27z" />
<glyph unicode="y" horiz-adv-x="1178" d="M140 350v522q0 64 42 64t42 -64v-522q0 -90 19 -144t65 -81t99 -34t149 -7h58q158 0 244 96t86 276v416q0 64 44 64q40 0 40 -64v-1056q0 -128 -36 -177t-136 -49h-526q-62 0 -103 18t-58 53t-23 66t-6 77q0 60 42 60t42 -56q0 -72 26 -103t94 -31h498q62 0 82 23t20 87 v360q-108 -144 -330 -144h-58q-212 0 -314 70t-102 280z" />
<glyph unicode="z" horiz-adv-x="1060" d="M116 0v118l708 720h-504q-78 0 -99 -41t-21 -123q0 -62 -44 -62q-40 0 -40 62q0 140 40 194t150 54h612v-124l-702 -714h538q56 0 84 25t33 54t5 85q0 62 42 62t42 -62q0 -140 -41 -194t-149 -54h-654z" />
<glyph unicode="{" horiz-adv-x="500" d="M68 634q18 8 43 24t67 60t42 82t-28 129t-28 127q0 178 54 239t186 61v-84q-104 0 -130 -40t-26 -176q0 -24 28 -115t28 -141q0 -38 -38 -80t-76 -64l-38 -22q18 -8 43 -23t67 -58t42 -81q0 -52 -28 -142t-28 -114q0 -138 26 -177t130 -39v-84q-132 0 -186 61t-54 239 q0 36 28 127t28 129t-38 79t-76 62z" />
<glyph unicode="|" horiz-adv-x="408" d="M162 40v1190q0 56 42 56t42 -56v-1190q0 -54 -44 -54q-40 0 -40 54z" />
<glyph unicode="}" horiz-adv-x="502" d="M96 0q104 0 130 39t26 177q0 24 -28 114t-28 142q0 38 38 79t76 63l38 22q-18 8 -43 24t-67 59t-42 81q0 50 28 141t28 115q0 136 -26 176t-130 40v84q132 0 186 -61t54 -239q0 -36 -28 -127t-28 -129t38 -79t76 -63l38 -22q-18 -8 -43 -24t-67 -59t-42 -81t28 -129 t28 -127q0 -178 -54 -239t-186 -61v84z" />
<glyph unicode="~" horiz-adv-x="836" d="M146 402q0 26 24 44l94 78q10 14 30 14q6 0 22 -4l196 -72q8 -4 14 -4q8 0 22 10l62 56q22 16 38 16t29 -10t13 -26q0 -24 -24 -46l-94 -78q-14 -14 -32 -14q-8 0 -20 4l-196 72q-8 4 -16 4t-22 -10l-62 -56q-22 -16 -38 -16q-14 0 -27 11t-13 27z" />
<glyph unicode="&#xa2;" horiz-adv-x="942" d="M100 596v84q0 190 85 265t253 83v202q0 56 44 56q40 0 40 -56v-200h114q116 0 154 -58t38 -154q0 -62 -44 -62q-40 0 -40 58q0 72 -27 102t-95 30h-100v-616h96q68 0 95 30t27 102q0 58 40 58q44 0 44 -62q0 -44 -6 -76t-24 -66t-59 -52t-103 -18h-110v-206 q0 -54 -44 -54q-40 0 -40 54v208q-170 8 -254 82t-84 266zM184 596q0 -154 57 -207t197 -57v612q-136 -4 -195 -59t-59 -205v-84z" />
<glyph unicode="&#xa3;" horiz-adv-x="982" d="M130 46q0 10 2 16l76 874q10 110 42 183t85 107t106 47t125 13q138 0 217 -59t79 -225q0 -56 -44 -56q-40 0 -40 56q0 68 -16 111t-51 61t-67 23t-86 5q-120 0 -186 -50t-80 -216l-18 -208h78q54 0 54 -44q0 -40 -54 -40h-86l-48 -560h592q56 0 56 -44q0 -40 -56 -40 h-646q-34 0 -34 46z" />
<glyph unicode="&#xa5;" horiz-adv-x="1058" d="M64 1246q0 16 13 28t27 12q20 0 42 -32l384 -546l382 546q26 32 44 32q14 0 27 -12t13 -28q0 -18 -14 -38l-410 -588v-76h198q56 0 56 -44q0 -42 -56 -42h-198v-92h198q56 0 56 -44q0 -42 -56 -42h-198v-240q0 -54 -42 -54q-40 0 -40 54v240h-210q-54 0 -54 46 q0 40 54 40h210v92h-210q-54 0 -54 46q0 40 54 40h210v76l-412 588q-14 20 -14 38z" />
<glyph unicode="&#xa9;" horiz-adv-x="1208" d="M160 524v222q0 210 102 280t314 70h58q210 0 312 -70t102 -280v-222q0 -210 -102 -280t-312 -70h-58q-212 0 -314 70t-102 280zM244 524q0 -90 19 -144t65 -81t99 -34t149 -7h58q94 0 147 7t99 34t65 81t19 144v222q0 90 -19 144t-65 81t-99 34t-147 7h-58q-96 0 -149 -7 t-99 -34t-65 -81t-19 -144v-222zM414 596v78q0 78 53 118t127 40h100q40 0 64 -21t30 -42t6 -45q0 -22 -30 -22q-28 0 -28 20q0 48 -46 48h-96q-50 0 -85 -25t-35 -71v-78q0 -46 35 -71t85 -25h96q46 0 46 46q0 22 28 22q30 0 30 -24q0 -22 -6 -43t-30 -42t-64 -21h-100 q-74 0 -127 40t-53 118z" />
<glyph unicode="&#xad;" d="M146 462q0 42 52 42h490q58 0 58 -46q0 -40 -58 -40h-490q-52 0 -52 44z" />
<glyph unicode="&#xae;" horiz-adv-x="1208" d="M160 524v222q0 210 102 280t314 70h58q210 0 312 -70t102 -280v-222q0 -210 -102 -280t-312 -70h-58q-212 0 -314 70t-102 280zM244 524q0 -90 19 -144t65 -81t99 -34t149 -7h58q94 0 147 7t99 34t65 81t19 144v222q0 90 -19 144t-65 81t-99 34t-147 7h-58q-96 0 -149 -7 t-99 -34t-65 -81t-19 -144v-222zM406 434v388q0 20 28 20h168q208 0 208 -120q0 -42 -30 -75t-80 -39q30 -18 59 -60t43 -75t14 -39q0 -18 -32 -18q-10 0 -20 6t-10 12t-15 36t-48 72t-69 64h-154v-172q0 -18 -32 -18q-30 0 -30 18zM468 668h134q80 0 113 10t33 44 q0 36 -33 47t-113 11h-134v-112z" />
<glyph unicode="&#xb4;" horiz-adv-x="424" d="M68 1060q0 22 16 40l192 230q24 26 42 26q14 0 27 -12t13 -30q0 -20 -16 -38l-192 -230q-24 -26 -42 -26q-14 0 -27 12t-13 28z" />
<glyph unicode="&#x2000;" horiz-adv-x="685" />
<glyph unicode="&#x2001;" horiz-adv-x="1370" />
<glyph unicode="&#x2002;" horiz-adv-x="685" />
<glyph unicode="&#x2003;" horiz-adv-x="1370" />
<glyph unicode="&#x2004;" horiz-adv-x="456" />
<glyph unicode="&#x2005;" horiz-adv-x="342" />
<glyph unicode="&#x2006;" horiz-adv-x="228" />
<glyph unicode="&#x2007;" horiz-adv-x="228" />
<glyph unicode="&#x2008;" horiz-adv-x="171" />
<glyph unicode="&#x2009;" horiz-adv-x="274" />
<glyph unicode="&#x200a;" horiz-adv-x="76" />
<glyph unicode="&#x2010;" d="M146 462q0 42 52 42h490q58 0 58 -46q0 -40 -58 -40h-490q-52 0 -52 44z" />
<glyph unicode="&#x2011;" d="M146 462q0 42 52 42h490q58 0 58 -46q0 -40 -58 -40h-490q-52 0 -52 44z" />
<glyph unicode="&#x2012;" d="M146 462q0 42 52 42h490q58 0 58 -46q0 -40 -58 -40h-490q-52 0 -52 44z" />
<glyph unicode="&#x2013;" horiz-adv-x="1028" d="M146 462q0 42 52 42h626q58 0 58 -46q0 -40 -58 -40h-626q-52 0 -52 44z" />
<glyph unicode="&#x2014;" horiz-adv-x="1262" d="M146 462q0 42 52 42h860q58 0 58 -46q0 -40 -58 -40h-860q-52 0 -52 44z" />
<glyph unicode="&#x2018;" horiz-adv-x="386" d="M126 1110q0 86 51 164t83 78t32 -24q0 -8 -26 -68t-26 -150q0 -40 -60 -40q-54 0 -54 40z" />
<glyph unicode="&#x2019;" horiz-adv-x="384" d="M122 1094q0 6 27 67t27 149q0 42 60 42q52 0 52 -42q0 -86 -50 -163t-82 -77q-34 0 -34 24z" />
<glyph unicode="&#x201c;" horiz-adv-x="632" d="M126 1110q0 86 51 164t83 78t32 -24q0 -8 -26 -68t-26 -150q0 -40 -60 -40q-54 0 -54 40zM372 1110q0 86 51 164t83 78t32 -24q0 -8 -26 -68t-26 -150q0 -40 -60 -40q-54 0 -54 40z" />
<glyph unicode="&#x201d;" horiz-adv-x="630" d="M122 1094q0 6 27 67t27 149q0 42 60 42q52 0 52 -42q0 -86 -50 -163t-82 -77q-34 0 -34 24zM368 1094q0 6 27 67t27 149q0 42 60 42q52 0 52 -42q0 -86 -50 -163t-82 -77q-34 0 -34 24z" />
<glyph unicode="&#x2022;" horiz-adv-x="764" d="M112 516q0 112 79 191t191 79t191 -79t79 -191t-79 -191t-191 -79t-191 79t-79 191z" />
<glyph unicode="&#x2026;" horiz-adv-x="940" d="M132 58q0 28 30 50t62 22q30 0 61 -22t31 -50t-31 -50t-61 -22q-32 0 -62 22t-30 50zM378 58q0 28 30 50t62 22q30 0 61 -22t31 -50t-31 -50t-61 -22q-32 0 -62 22t-30 50zM624 58q0 28 30 50t62 22q30 0 61 -22t31 -50t-31 -50t-61 -22q-32 0 -62 22t-30 50z" />
<glyph unicode="&#x202f;" horiz-adv-x="274" />
<glyph unicode="&#x205f;" horiz-adv-x="342" />
<glyph unicode="&#x20ac;" horiz-adv-x="1102" d="M88 520q0 42 54 42h72v150h-72q-54 0 -54 46q0 40 54 40h72v20q0 218 124 336t322 118h126q62 0 103 -18t58 -52t23 -66t6 -78q0 -60 -42 -60t-42 56q0 72 -26 103t-94 31h-112q-172 0 -267 -95t-95 -275v-20h398q58 0 58 -44q0 -42 -58 -42h-398v-150h398q58 0 58 -46 q0 -40 -58 -40h-398v-22q0 -180 95 -275t267 -95h112q68 0 94 30t26 104q0 56 42 56t42 -62q0 -44 -6 -76t-23 -66t-58 -52t-103 -18h-126q-198 0 -322 118t-124 336v22h-72q-54 0 -54 44z" />
<glyph unicode="&#x2122;" horiz-adv-x="1288" d="M106 1314q0 42 56 42h296q56 0 56 -44q0 -40 -56 -40h-106v-404q0 -54 -42 -54t-42 54v404h-106q-56 0 -56 42zM582 872v436q0 62 44 62q36 0 52 -34l174 -384l174 386q14 32 52 32q44 0 44 -62v-434q0 -60 -42 -60t-42 60v324l-162 -372q-4 -12 -24 -12q-14 0 -24 12 l-162 372v-326q0 -58 -42 -58t-42 58z" />
<glyph unicode="&#xe000;" horiz-adv-x="945" d="M0 945h945v-945h-945v945z" />
</font>
</defs>
</svg>
