<?xml version="1.0" standalone="no"?>
<!DOCTYPE svg PUBLIC "-//W3C//DTD SVG 1.1//EN" "http://www.w3.org/Graphics/SVG/1.1/DTD/svg11.dtd" >
<svg xmlns="http://www.w3.org/2000/svg">
<metadata>
This is a custom SVG webfont generated by Font Squirrel.
Copyright   : Copyright 2009 2010 2011 by Daniel Johnson  Released under the terms of the Open Font License
</metadata>
<defs>
<font id="JuraMedium" horiz-adv-x="1282" >
<font-face units-per-em="2048" ascent="1638" descent="-410" />
<missing-glyph horiz-adv-x="520" />
<glyph unicode=" "  horiz-adv-x="520" />
<glyph unicode="&#x09;" horiz-adv-x="520" />
<glyph unicode="&#xa0;" horiz-adv-x="520" />
<glyph unicode="!" horiz-adv-x="506" d="M140 58q0 38 38 65t74 27q38 0 76 -27t38 -65q0 -40 -37 -66t-77 -26q-38 0 -75 27t-37 65zM190 394v838q0 76 62 76t62 -76v-838q0 -76 -64 -76q-60 0 -60 76z" />
<glyph unicode="&#x22;" horiz-adv-x="610" d="M142 932v298q0 76 62 76q60 0 60 -76v-298q0 -76 -62 -76q-60 0 -60 76zM344 932v298q0 76 62 76t62 -76v-298q0 -76 -64 -76q-60 0 -60 76z" />
<glyph unicode="#" horiz-adv-x="1226" d="M88 452q0 62 76 62h162l90 244h-192q-74 0 -74 64q0 60 74 60h238l120 334q26 54 62 54q28 0 45 -16t17 -44q0 -22 -6 -36l-110 -292h228l120 334q22 54 64 54q28 0 45 -19t17 -43q0 -16 -6 -36l-108 -290h112q76 0 76 -62t-76 -62h-156l-90 -244h184q76 0 76 -64 q0 -60 -76 -60h-230l-120 -334q-20 -54 -64 -54q-62 0 -62 62q0 16 6 36l110 290h-228l-120 -334q-20 -54 -64 -54q-28 0 -44 17t-16 43q0 18 6 36l108 292h-118q-76 0 -76 62zM458 514h224l90 244h-224z" />
<glyph unicode="$" horiz-adv-x="1216" d="M122 404q0 76 62 76t62 -72q0 -66 22 -88t78 -22h210v294h-166q-268 0 -268 268q0 120 61 184t207 64h166v104q0 74 60 74q64 0 64 -72v-106h204q126 0 168 -60t42 -164q0 -78 -62 -78t-62 74q0 64 -21 84t-79 20h-190v-268h152q262 0 262 -280q0 -262 -266 -262h-148 v-114q0 -74 -66 -74q-58 0 -58 70v118h-224q-126 0 -168 62t-42 168zM246 868q0 -74 30 -113t78 -39h202v268h-202q-54 0 -81 -24t-27 -92zM680 298h182q108 0 108 130q0 72 -30 118t-78 46h-182v-294z" />
<glyph unicode="%" horiz-adv-x="1156" d="M136 282q0 28 28 56l742 692q32 26 54 26q20 0 40 -17t20 -43q0 -22 -26 -54l-742 -694q-28 -26 -56 -26q-20 0 -40 17t-20 43zM160 922q0 72 51 123t125 51q76 0 131 -51t55 -123t-55 -123t-131 -51q-74 0 -125 51t-51 123zM286 922q0 -20 16 -35t34 -15q16 0 33 15 t17 35t-17 35t-33 15q-20 0 -35 -15t-15 -35zM634 366q0 72 56 123t132 51q72 0 123 -51t51 -123t-51 -123t-123 -51q-76 0 -132 51t-56 123zM772 366q0 -20 15 -35t35 -15t35 15t15 35q0 22 -14 36t-36 14q-20 0 -35 -15t-15 -35z" />
<glyph unicode="&#x26;" horiz-adv-x="1040" d="M80 364q0 98 40 194t124 158l-16 18q-98 118 -98 218q0 158 115 260t251 102q86 0 160 -59t106 -117t32 -82t-18 -42t-44 -18t-51 30t-43 67t-56 67t-86 30q-90 0 -164 -65t-74 -173q0 -68 74 -152l462 -534q50 82 50 188q0 82 64 82q58 0 58 -82q0 -158 -88 -286l88 -98 q16 -18 16 -48t-18 -43t-36 -13q-36 0 -68 36l-64 74q-132 -114 -288 -114q-70 0 -140 22t-137 66t-109 126t-42 188zM204 364q0 -146 93 -212t211 -66q112 0 208 84l-392 454q-120 -82 -120 -260z" />
<glyph unicode="'" horiz-adv-x="406" d="M142 932v298q0 76 62 76q60 0 60 -76v-298q0 -76 -62 -76q-60 0 -60 76z" />
<glyph unicode="(" horiz-adv-x="520" d="M146 266v740q0 104 14 174t34 109t60 59t75 24t97 4v-124q-64 0 -88 -3t-44 -30t-22 -70t-2 -143v-740q0 -100 2 -143t22 -70t44 -30t88 -3v-124q-62 0 -97 4t-75 24t-60 59t-34 109t-14 174z" />
<glyph unicode=")" horiz-adv-x="520" d="M94 20q64 0 88 3t44 30t22 70t2 143v740q0 100 -2 143t-22 70t-44 30t-88 3v124q62 0 97 -4t75 -24t60 -59t34 -109t14 -174v-740q0 -104 -14 -174t-34 -109t-60 -59t-75 -24t-97 -4v124z" />
<glyph unicode="*" horiz-adv-x="810" d="M128 858q0 36 40 60l112 66l-112 62q-40 22 -40 60q0 16 14 38t44 22q20 0 156 -76v126q0 76 64 76q60 0 60 -76v-126q20 10 50 28q86 48 106 48q26 0 43 -19t17 -41q0 -34 -42 -60l-110 -62l110 -66q42 -26 42 -60q0 -16 -15 -38t-45 -22q-20 0 -156 76v-126 q0 -76 -62 -76t-62 76v126q-20 -10 -50 -28q-86 -48 -106 -48q-24 0 -41 19t-17 41z" />
<glyph unicode="+" horiz-adv-x="1050" d="M72 462q0 24 17 43t55 19h318v356q0 76 64 76q60 0 60 -76v-356h314q78 0 78 -66q0 -28 -23 -44t-55 -16h-314v-358q0 -74 -62 -74t-62 74v358h-318q-72 0 -72 64z" />
<glyph unicode="," horiz-adv-x="438" d="M96 -120q0 10 6 34l48 174q16 54 60 54q28 0 60 -14t32 -46q0 -22 -12 -42l-80 -166q-26 -54 -60 -54q-54 0 -54 60z" />
<glyph unicode="-" horiz-adv-x="932" d="M146 462q0 24 17 43t55 19h490q78 0 78 -66q0 -28 -23 -44t-55 -16h-490q-72 0 -72 64z" />
<glyph unicode="." horiz-adv-x="478" d="M128 58q0 38 37 65t75 27q36 0 74 -27t38 -65t-37 -65t-75 -27q-40 0 -76 26t-36 66z" />
<glyph unicode="/" horiz-adv-x="734" d="M84 22q0 14 6 38l436 1198q20 52 60 52q22 0 43 -14t21 -44q0 -10 -6 -40l-436 -1196q-20 -52 -62 -52q-20 0 -41 14t-21 44z" />
<glyph unicode="0" horiz-adv-x="1272" d="M152 312v648q0 142 105 232t267 90h224q162 0 267 -90t105 -232v-648q0 -142 -105 -232t-267 -90h-224q-162 0 -267 90t-105 232zM276 282q0 -62 65 -115t163 -53h264q98 0 163 53t65 115v706q0 62 -65 115t-163 53h-264q-98 0 -163 -53t-65 -115v-706z" />
<glyph unicode="1" horiz-adv-x="530" d="M74 1160q0 30 32 60l122 122q32 28 62 28q22 0 43 -16t21 -50v-1246q0 -72 -62 -72t-62 72v1112l-32 -32q-32 -30 -66 -30q-30 0 -44 17t-14 35z" />
<glyph unicode="2" horiz-adv-x="1214" d="M126 -10v106q0 104 46 190t121 145t165 108t179 91t164 82t121 91t46 111q0 158 -68 201t-258 43h-294q-58 0 -78 -23t-20 -87q0 -80 -64 -80q-60 0 -60 80q0 126 49 180t159 54h308q232 0 341 -74t109 -292q0 -100 -84 -181t-206 -141l-244 -122q-122 -62 -212 -153 t-96 -205h762q80 0 80 -64q0 -60 -80 -60h-886z" />
<glyph unicode="3" horiz-adv-x="1232" d="M124 222q0 82 62 82t62 -76q0 -48 87 -81t185 -33h176q156 0 215 57t59 167q0 98 -128 174t-244 76q-92 0 -92 64q0 62 92 62q128 0 250 63t122 159q0 110 -59 166t-215 56h-176q-96 0 -184 -33t-88 -81q0 -76 -62 -76t-62 80q0 94 103 164t279 70h166q228 0 324 -87 t96 -297q0 -64 -78 -136t-160 -110q78 -36 158 -123t80 -155q0 -210 -96 -297t-324 -87h-166q-176 0 -279 69t-103 163z" />
<glyph unicode="4" horiz-adv-x="1112" d="M68 330v138l650 814h150v-828h102q74 0 74 -62t-74 -62h-102v-274q0 -70 -62 -70q-66 0 -66 70v274h-672zM202 454h538v674z" />
<glyph unicode="5" horiz-adv-x="1176" d="M126 200q0 24 19 43t39 19q14 0 69 -39t146 -78t191 -39q176 0 268 94t92 262q0 108 -55 180t-120 97t-131 25h-506l18 256q10 146 65 204t175 58h520q74 0 74 -64q0 -60 -74 -60h-534q-46 0 -69 -23t-29 -83l-12 -164h354q178 0 313 -116t135 -310q0 -224 -134 -352 t-350 -128q-132 0 -298 71t-166 147z" />
<glyph unicode="6" horiz-adv-x="1150" d="M102 422q0 172 44 323t108 247t137 166t128 100t83 30q72 0 72 -56q0 -38 -52 -62q-102 -50 -195 -149t-145 -243q126 88 304 88q212 0 348 -124t136 -318t-136 -318t-348 -124t-348 123t-136 317zM226 424q0 -146 94 -232t266 -86t266 86t94 232t-95 232t-265 86 t-265 -86t-95 -232z" />
<glyph unicode="7" horiz-adv-x="1036" d="M58 1058q0 126 50 180t160 54h660q62 0 62 -56q0 -20 -8 -44l-446 -1154q-22 -58 -66 -58q-24 0 -48 13t-24 45q0 20 12 44l432 1086h-558q-60 0 -81 -25t-21 -85q0 -80 -62 -80t-62 80z" />
<glyph unicode="8" horiz-adv-x="1260" d="M146 352q0 216 120 300q-120 76 -120 288q0 94 23 158t58 100t98 55t122 24t151 5h66q92 0 150 -5t122 -24t98 -55t57 -100t23 -158q0 -216 -118 -288q118 -88 118 -300q0 -216 -109 -289t-341 -73h-66q-114 0 -190 13t-139 51t-93 111t-30 187zM270 938q0 -66 13 -106 t31 -64t66 -35t89 -13t129 -2h66q64 0 95 1t74 5t62 12t42 23t32 40t15 58t6 81t-6 81t-15 58t-32 40t-41 23t-61 12t-75 5t-96 1h-70q-74 0 -107 -1t-80 -7t-65 -19t-39 -38t-27 -62t-6 -93zM270 354q0 -156 68 -198t260 -42h66q192 0 259 42t67 198t-68 198t-258 42h-66 q-192 0 -260 -43t-68 -197z" />
<glyph unicode="9" horiz-adv-x="1152" d="M84 938q0 90 40 157t95 102t133 55t134 25t116 5q450 0 450 -346q0 -212 -64 -396t-169 -307t-239 -194t-274 -71q-72 0 -72 64q0 62 72 62q70 0 152 32t169 94t161 174t108 254q-102 -54 -294 -54q-518 0 -518 344zM208 938q0 -72 34 -119t98 -67t122 -27t140 -7 q180 0 253 55t73 163t-75 165t-251 57q-394 0 -394 -220z" />
<glyph unicode=":" horiz-adv-x="516" d="M146 160q0 38 37 65t75 27q36 0 74 -27t38 -65t-37 -65t-75 -27q-40 0 -76 26t-36 66zM146 866q0 38 37 65t75 27q36 0 74 -27t38 -65t-37 -65t-75 -27q-40 0 -76 26t-36 66z" />
<glyph unicode=";" horiz-adv-x="522" d="M146 866q0 38 37 65t75 27q36 0 74 -27t38 -65t-37 -65t-75 -27q-40 0 -76 26t-36 66zM160 -18q0 10 6 34l48 174q16 54 60 54q28 0 60 -14t32 -46q0 -22 -12 -42l-80 -166q-26 -54 -60 -54q-54 0 -54 60z" />
<glyph unicode="&#x3c;" horiz-adv-x="1078" d="M66 666q0 34 40 58l728 420q26 14 46 14q26 0 43 -15t17 -41q0 -40 -44 -64l-646 -372l644 -376q46 -28 46 -58q0 -18 -14 -41t-44 -23q-24 0 -48 16l-728 420q-40 24 -40 62z" />
<glyph unicode="=" horiz-adv-x="956" d="M158 562q0 24 17 43t55 19h490q78 0 78 -66q0 -28 -23 -44t-55 -16h-490q-72 0 -72 64zM158 768q0 24 17 43t55 19h490q78 0 78 -66q0 -28 -23 -44t-55 -16h-490q-72 0 -72 64z" />
<glyph unicode="&#x3e;" horiz-adv-x="1078" d="M138 232q0 30 46 58l644 376l-646 372q-44 24 -44 64q0 26 17 41t43 15q20 0 46 -14l728 -420q40 -24 40 -58q0 -38 -40 -62l-728 -420q-24 -16 -48 -16q-30 0 -44 23t-14 41z" />
<glyph unicode="?" horiz-adv-x="1090" d="M76 942q0 116 30 190t92 112t134 51t182 13h152q182 0 262 -100t80 -240q0 -138 -59 -214t-203 -116l-172 -48v-202q0 -76 -62 -76q-24 0 -43 17t-19 59v296l322 88q48 12 80 66t32 130q0 78 -43 147t-141 69h-186q-184 0 -248 -42t-64 -200q0 -76 -62 -76q-64 0 -64 76z M400 58q0 38 37 65t75 27q36 0 74 -27t38 -65t-37 -65t-75 -27q-40 0 -76 26t-36 66z" />
<glyph unicode="@" horiz-adv-x="1206" d="M140 482v308q0 234 119 368t317 134h58q198 0 317 -134t119 -368q0 -74 -4 -121t-18 -102t-44 -88t-80 -63t-128 -43t-184 -13q-152 0 -207 71t-55 233q0 160 56 231t206 71q152 0 208 -71t56 -231q0 -94 -16 -148q50 16 68 72t18 202q0 180 -79 279t-233 99h-58 q-156 0 -234 -99t-78 -279v-308q0 -180 78 -279t234 -99h268q58 0 80 24t22 90q0 76 60 76q64 0 64 -82q0 -104 -43 -168t-169 -64h-282q-198 0 -317 134t-119 368zM474 664q0 -112 24 -146t114 -34q92 0 116 34t24 146q0 110 -24 144t-116 34q-90 0 -114 -34t-24 -144z" />
<glyph unicode="A" horiz-adv-x="1180" d="M48 28q0 16 6 34l464 1210h144l464 -1210q6 -18 6 -34q0 -32 -22 -46t-40 -14q-44 0 -64 52l-140 368h-552l-140 -368q-22 -52 -64 -52q-18 0 -40 14t-22 46zM362 512h456l-230 580z" />
<glyph unicode="B" horiz-adv-x="1248" d="M168 80v1112q0 80 58 80h368q232 0 345 -67t113 -249q0 -152 -88 -226q172 -74 172 -328v-38q0 -218 -112 -291t-362 -73h-436q-58 0 -58 80zM292 124h370q208 0 279 42t71 196v34q0 154 -68 196t-258 42h-394v-510zM292 758h302q190 0 262 37t72 153q0 118 -74 154 t-260 36h-302v-380z" />
<glyph unicode="C" horiz-adv-x="1220" d="M142 364v544q0 216 109 290t343 74h306q126 0 168 -64t42 -170q0 -80 -62 -80t-62 76q0 66 -21 90t-79 24h-292q-192 0 -260 -43t-68 -199v-540q0 -158 71 -200t281 -42h268q58 0 79 25t21 89q0 76 62 76t62 -82q0 -104 -42 -168t-168 -64h-282q-250 0 -363 73t-113 291z " />
<glyph unicode="D" horiz-adv-x="1278" d="M168 80v1112q0 80 58 80h460q232 0 341 -74t109 -290v-544q0 -218 -112 -291t-362 -73h-436q-58 0 -58 80zM292 124h370q208 0 279 42t71 200v540q0 158 -68 200t-258 42h-394v-1024z" />
<glyph unicode="E" horiz-adv-x="1234" d="M168 80v1112q0 80 58 80h832q78 0 78 -66q0 -58 -78 -58h-766v-370h524q86 0 86 -66q0 -58 -86 -58h-524v-530h766q78 0 78 -66q0 -58 -78 -58h-832q-58 0 -58 80z" />
<glyph unicode="F" horiz-adv-x="1192" d="M168 64v1128q0 80 58 80h832q78 0 78 -66q0 -58 -78 -58h-766v-370h524q86 0 86 -66q0 -58 -86 -58h-524v-592q0 -76 -62 -76t-62 78z" />
<glyph unicode="G" horiz-adv-x="1250" d="M142 358v556q0 216 113 287t363 71h282q126 0 168 -64t42 -168q0 -82 -62 -82t-62 78q0 64 -21 88t-79 24h-268q-208 0 -280 -42t-72 -196v-548q0 -154 68 -196t260 -42h292q60 0 80 23t20 85v250h-258q-86 0 -86 60q0 64 86 64h382v-382q0 -64 -12 -108t-61 -80 t-137 -36h-306q-234 0 -343 72t-109 286z" />
<glyph unicode="H" horiz-adv-x="1304" d="M168 62v1146q0 78 58 78q66 0 66 -78v-460h720v460q0 78 60 78q64 0 64 -78v-1146q0 -76 -60 -76q-64 0 -64 76v562h-720v-562q0 -76 -62 -76t-62 76z" />
<glyph unicode="I" horiz-adv-x="460" d="M168 58v1154q0 74 62 74t62 -74v-1154q0 -72 -64 -72q-60 0 -60 72z" />
<glyph unicode="J" horiz-adv-x="1142" d="M66 354q0 76 66 76q28 0 44 -21t16 -55q0 -160 68 -203t264 -43q194 0 263 42t69 196v868q0 72 62 72t62 -74v-870q0 -214 -110 -286t-346 -72q-238 0 -348 74t-110 296z" />
<glyph unicode="K" horiz-adv-x="1078" d="M168 58v1154q0 74 62 74t62 -76v-534l524 576q30 34 58 34q20 0 40 -17t20 -41q0 -26 -22 -52l-438 -466l570 -614q24 -28 24 -50q0 -26 -21 -43t-41 -17q-30 0 -58 34l-560 618l-96 -116v-462q0 -74 -64 -74q-60 0 -60 72z" />
<glyph unicode="L" horiz-adv-x="1070" d="M168 78v1136q0 72 62 72t62 -72v-1090h656q76 0 76 -64q0 -60 -76 -60h-722q-58 0 -58 78z" />
<glyph unicode="M" horiz-adv-x="1346" d="M168 62v1146q0 78 58 78q40 0 68 -42l378 -544l380 544q30 42 66 42q60 0 60 -78v-1146q0 -76 -64 -76q-60 0 -60 80v1002l-336 -490q-16 -20 -46 -20q-24 0 -44 20l-336 490v-1002q0 -80 -62 -80t-62 76z" />
<glyph unicode="N" horiz-adv-x="1304" d="M168 62v1146q0 78 58 78q40 0 68 -42l718 -1030v990q0 82 60 82q64 0 64 -78v-1146q0 -76 -60 -76q-34 0 -48 14l-736 1060v-1002q0 -72 -62 -72t-62 76z" />
<glyph unicode="O" horiz-adv-x="1228" d="M130 458v356q0 222 134 349t350 127q214 0 349 -127t135 -349v-356q0 -222 -135 -349t-349 -127q-216 0 -350 127t-134 349zM254 462q0 -170 92 -263t268 -93t268 93t92 263v348q0 168 -93 262t-267 94t-267 -94t-93 -262v-348z" />
<glyph unicode="P" horiz-adv-x="1120" d="M168 58v1134q0 80 58 80h372q228 0 341 -67t113 -247q0 -152 -95 -233t-267 -81h-398v-586q0 -72 -64 -72q-60 0 -60 72zM292 768h306q194 0 262 38t68 152q0 118 -72 154t-258 36h-306v-380z" />
<glyph unicode="Q" horiz-adv-x="1228" d="M130 458v356q0 222 134 349t350 127q214 0 349 -127t135 -349v-356q0 -188 -94 -308l64 -60q24 -24 24 -54q0 -22 -17 -41t-41 -19q-34 0 -56 22l-64 64q-120 -80 -300 -80q-216 0 -350 127t-134 349zM254 462q0 -170 92 -263t268 -93q130 0 210 48l-106 94 q-30 22 -30 52q0 22 18 42t46 20q32 0 62 -30l100 -96q60 88 60 226v348q0 168 -93 262t-267 94t-267 -94t-93 -262v-348z" />
<glyph unicode="R" horiz-adv-x="1178" d="M168 58v1134q0 80 58 80h368q232 0 345 -67t113 -249q0 -120 -59 -196t-165 -102q64 -70 123 -217t88 -254t29 -129q0 -30 -18 -51t-46 -21q-56 0 -60 72q-4 76 -82 282t-196 294h-374v-576q0 -72 -64 -72q-60 0 -60 72zM292 758h302q190 0 262 36t72 154t-73 154 t-261 36h-302v-380z" />
<glyph unicode="S" horiz-adv-x="1256" d="M122 354q0 76 66 76q28 0 44 -21t16 -55q0 -160 69 -203t279 -43h220q72 0 119 39t61 83t14 90q0 94 -37 151t-75 65l-508 104q-144 30 -206 106t-62 214q0 136 89 232t295 96h152q124 0 203 -13t146 -51t97 -112t30 -190q0 -76 -64 -76q-28 0 -45 21t-17 55 q0 84 -15 132t-62 73t-104 31t-169 6h-204q-112 0 -160 -66t-48 -142q0 -74 33 -127t79 -65l512 -100q142 -28 203 -124t61 -224q0 -62 -17 -117t-56 -106t-112 -80t-173 -29h-180q-248 0 -361 74t-113 296z" />
<glyph unicode="T" horiz-adv-x="1000" d="M52 1210q0 62 76 62h742q76 0 76 -64q0 -60 -76 -60h-300v-1090q0 -40 -22 -56t-50 -16q-66 0 -66 72v1090h-304q-76 0 -76 62z" />
<glyph unicode="U" horiz-adv-x="1280" d="M156 458v754q0 74 62 74t62 -72v-752q0 -170 92 -263t268 -93t268 93t92 263v752q0 72 64 72q60 0 60 -74v-754q0 -222 -135 -349t-349 -127q-216 0 -350 127t-134 349z" />
<glyph unicode="V" horiz-adv-x="1180" d="M48 1244q0 32 22 46t40 14q40 0 64 -52l418 -1072l414 1072q22 52 64 52q18 0 40 -14t22 -46q0 -16 -6 -34l-464 -1210h-144l-464 1210q-6 18 -6 34z" />
<glyph unicode="W" horiz-adv-x="1870" d="M54 1256q0 50 58 50q46 0 66 -50l338 -1088l348 1078q20 58 70 58q56 0 74 -60l350 -1076l334 1080q20 50 66 50q58 0 58 -50q0 -12 -8 -36l-386 -1212h-132l-356 1084l-354 -1084h-130l-388 1220q-8 24 -8 36z" />
<glyph unicode="X" horiz-adv-x="1164" d="M76 44q0 24 18 48l408 542l-408 544q-18 22 -18 44q0 24 13 40t25 20t22 4q32 0 60 -40l386 -522l388 522q30 40 58 40q20 0 41 -15t21 -49q0 -20 -18 -44l-408 -544l408 -542q18 -24 18 -48q0 -28 -20 -43t-42 -15q-30 0 -58 36l-388 524l-386 -524q-26 -36 -60 -36 q-22 0 -41 16t-19 42z" />
<glyph unicode="Y" horiz-adv-x="1082" d="M34 1226q0 26 19 43t41 17q28 0 58 -40l388 -522l386 522q32 40 60 40q20 0 40 -17t20 -43q0 -18 -18 -46l-422 -566v-558q0 -70 -66 -70q-64 0 -64 70v558l-424 566q-18 28 -18 46z" />
<glyph unicode="Z" horiz-adv-x="1160" d="M96 1210q0 62 82 62h886v-120l-808 -1028h728q80 0 80 -64q0 -60 -80 -60h-886v116l812 1032h-732q-82 0 -82 62z" />
<glyph unicode="[" horiz-adv-x="534" d="M160 -104v1480h280v-124h-156v-1232h156v-124h-280z" />
<glyph unicode="\" horiz-adv-x="734" d="M84 1252q0 30 21 44t43 14q40 0 60 -52l436 -1198q6 -24 6 -38q0 -30 -21 -44t-41 -14q-42 0 -62 52l-436 1196q-6 30 -6 40z" />
<glyph unicode="]" horiz-adv-x="534" d="M94 20h156v1232h-156v124h280v-1480h-280v124z" />
<glyph unicode="^" horiz-adv-x="886" d="M150 766q0 18 4 28l224 498h132l222 -498q4 -10 4 -28q0 -56 -56 -56q-44 0 -68 48l-168 380l-172 -380q-20 -48 -66 -48q-24 0 -40 16t-16 40z" />
<glyph unicode="_" horiz-adv-x="950" d="M-20 -40q0 60 76 60h838q76 0 76 -64q0 -60 -76 -60h-838q-76 0 -76 64z" />
<glyph unicode="`" horiz-adv-x="424" d="M48 1314q0 28 19 45t41 17q28 0 58 -34l192 -230q20 -24 20 -52q0 -26 -19 -43t-41 -17q-28 0 -58 34l-192 230q-20 22 -20 50z" />
<glyph unicode="a" horiz-adv-x="1146" d="M120 252q0 204 115 276t361 72h284v100q0 56 -21 77t-79 21h-282q-254 0 -254 -110q0 -80 -64 -80q-60 0 -60 80q0 234 364 234h310q122 0 166 -58t44 -198v-604q0 -76 -62 -76t-62 80v46q-118 -112 -350 -112h-186q-98 0 -161 69t-63 183zM244 242q0 -46 32 -82t68 -36 h186q350 0 350 332v20h-284q-212 0 -282 -41t-70 -193z" />
<glyph unicode="b" d="M150 62v1142q0 82 58 82q66 0 66 -82v-394q120 112 352 112h58q248 0 361 -72t113 -282v-214q0 -210 -113 -282t-361 -72h-58q-232 0 -352 112v-46q0 -80 -62 -80t-62 76zM274 456q0 -332 352 -332h58q208 0 279 40t71 194v206q0 154 -71 194t-279 40h-58 q-352 0 -352 -334v-8z" />
<glyph unicode="c" horiz-adv-x="1208" d="M124 354v214q0 210 113 282t363 72h282q66 0 111 -20t65 -56t27 -73t7 -85q0 -80 -62 -80t-62 76q0 66 -21 90t-79 24h-268q-212 0 -282 -41t-70 -193v-206q0 -152 70 -193t282 -41h268q58 0 79 25t21 89q0 76 62 76t62 -82q0 -104 -42 -168t-168 -64h-282 q-250 0 -363 72t-113 282z" />
<glyph unicode="d" d="M124 354v214q0 210 112 282t358 72h414v284q0 80 66 80q58 0 58 -80v-1144q0 -76 -62 -76t-62 80v46q-120 -112 -352 -112h-58q-248 0 -361 72t-113 282zM248 358q0 -154 71 -194t279 -40h58q352 0 352 334v340h-414q-206 0 -276 -40t-70 -194v-206z" />
<glyph unicode="e" horiz-adv-x="1252" d="M124 354v214q0 210 113 282t363 72h58q248 0 361 -72t113 -282v-88h-884v-122q0 -152 70 -193t282 -41h308q58 0 79 25t21 89q0 76 62 76t62 -82q0 -104 -42 -168t-168 -64h-322q-250 0 -363 72t-113 282zM248 604h760q-4 124 -76 159t-274 35h-58q-204 0 -276 -35 t-76 -159z" />
<glyph unicode="f" horiz-adv-x="668" d="M98 866q0 48 62 56q2 110 33 181t93 107t133 49t177 13q82 0 82 -66q0 -58 -82 -58q-178 0 -244 -40t-68 -186h266q82 0 82 -66q0 -58 -82 -58h-266v-734q0 -78 -66 -78q-58 0 -58 78v740q-62 8 -62 62z" />
<glyph unicode="g" d="M124 -176q0 80 62 80t62 -76q0 -66 21 -90t79 -24h578q52 0 67 17t15 73v196h-412q-248 0 -360 72t-112 282v214q0 210 113 282t361 72h58q232 0 352 -112v46q0 80 62 80t62 -76v-1024q0 -134 -40 -190t-152 -56h-606q-66 0 -111 20t-65 56t-27 73t-7 85zM248 358 q0 -154 70 -194t278 -40h412v342q0 332 -352 332h-58q-208 0 -279 -40t-71 -194v-206z" />
<glyph unicode="h" horiz-adv-x="1296" d="M150 62v1142q0 82 58 82q66 0 66 -82v-394q120 112 352 112h58q248 0 361 -72t113 -282v-506q0 -76 -60 -76q-64 0 -64 76v502q0 154 -71 194t-279 40h-58q-352 0 -352 -338v-398q0 -76 -62 -76t-62 76z" />
<glyph unicode="i" horiz-adv-x="416" d="M96 1202q0 40 36 66t76 26q38 0 75 -27t37 -65t-38 -65t-74 -27q-38 0 -75 27t-37 65zM146 40v840q0 76 62 76t62 -76v-840q0 -74 -64 -74q-60 0 -60 74z" />
<glyph unicode="j" horiz-adv-x="424" d="M-244 -286q0 60 82 60q182 0 247 40t65 186v854q0 82 64 82q60 0 60 -82v-854q0 -110 -30 -182t-92 -108t-134 -48t-180 -12q-82 0 -82 64zM100 1202q0 40 36 66t76 26q38 0 75 -27t37 -65t-38 -65t-74 -27q-38 0 -75 27t-37 65z" />
<glyph unicode="k" horiz-adv-x="952" d="M150 56v1154q0 76 62 76t62 -76v-658l390 354q26 26 56 26q22 0 41 -17t19 -43q0 -28 -28 -52l-342 -292l490 -428q24 -20 24 -54q0 -20 -17 -39t-41 -19q-26 0 -56 26l-488 452l-48 -48v-358q0 -74 -64 -74q-60 0 -60 70z" />
<glyph unicode="l" horiz-adv-x="566" d="M182 260v946q0 80 62 80t62 -80v-978q0 -60 21 -82t79 -22q80 0 80 -64q0 -60 -80 -60h-14q-122 0 -166 60t-44 200z" />
<glyph unicode="m" horiz-adv-x="1700" d="M148 62v796q0 78 58 78q66 0 66 -82v-42q52 58 109 84t145 26q134 0 222 -31t130 -119q108 150 300 150q190 0 285 -73t95 -281v-506q0 -76 -62 -76t-62 76v502q0 154 -51 194t-205 40q-124 0 -194 -87t-70 -251v-398q0 -76 -60 -76q-64 0 -64 76v502q0 152 -54 193 t-210 41q-122 0 -188 -87t-66 -251v-398q0 -76 -62 -76t-62 76z" />
<glyph unicode="n" horiz-adv-x="1294" d="M148 62v796q0 78 58 78q66 0 66 -82v-44q120 112 352 112h58q248 0 361 -72t113 -282v-506q0 -76 -60 -76q-64 0 -64 76v502q0 154 -71 194t-279 40h-58q-352 0 -352 -338v-398q0 -76 -62 -76t-62 76z" />
<glyph unicode="o" horiz-adv-x="1256" d="M124 354v214q0 210 113 282t363 72h58q248 0 361 -72t113 -282v-214q0 -210 -113 -282t-361 -72h-58q-250 0 -363 72t-113 282zM248 358q0 -152 70 -193t282 -41h58q208 0 279 40t71 194v206q0 154 -71 194t-279 40h-58q-212 0 -282 -41t-70 -193v-206z" />
<glyph unicode="p" d="M150 -284v1144q0 76 62 76t62 -80v-46q120 112 352 112h58q248 0 361 -72t113 -282v-214q0 -210 -112 -282t-358 -72h-414v-284q0 -80 -66 -80q-58 0 -58 80zM274 124h414q206 0 276 40t70 194v206q0 154 -71 194t-279 40h-58q-352 0 -352 -334v-340z" />
<glyph unicode="q" d="M124 568q0 210 113 282t363 72h58q232 0 350 -112v46q0 80 62 80t62 -76v-1144q0 -80 -58 -80q-66 0 -66 80v284h-412q-248 0 -360 72t-112 282v214zM248 358q0 -154 70 -194t278 -40h412v340q0 334 -350 334h-58q-212 0 -282 -41t-70 -193v-206z" />
<glyph unicode="r" horiz-adv-x="790" d="M148 62v796q0 78 58 78q66 0 66 -82v-44q120 112 312 112h92q80 0 80 -62t-80 -62h-92q-152 0 -232 -87t-80 -251v-398q0 -76 -62 -76t-62 76z" />
<glyph unicode="s" horiz-adv-x="1212" d="M120 232q0 82 62 82t62 -76q0 -64 21 -89t79 -25h516q108 0 108 134q0 68 -30 110t-78 42h-472q-140 0 -204 72t-64 192q0 122 68 185t240 63h450q66 0 111 -20t65 -56t27 -73t7 -85q0 -80 -62 -80t-62 76q0 66 -21 90t-79 24h-512q-108 0 -108 -124q0 -68 30 -104 t78 -36h474q144 0 205 -79t61 -197q0 -126 -68 -192t-238 -66h-456q-126 0 -168 64t-42 168z" />
<glyph unicode="t" horiz-adv-x="716" d="M94 866q0 48 62 56v198q0 82 58 82q66 0 66 -82v-198h266q82 0 82 -66q0 -58 -82 -58h-266v-440q0 -152 66 -193t246 -41q80 0 80 -58q0 -66 -80 -66q-220 0 -328 73t-108 281v450q-62 4 -62 62z" />
<glyph unicode="u" horiz-adv-x="1294" d="M138 354v506q0 76 60 76q64 0 64 -76v-502q0 -154 71 -194t279 -40h58q352 0 352 338v398q0 76 62 76t62 -76v-796q0 -78 -58 -78q-66 0 -66 82v44q-120 -112 -352 -112h-58q-248 0 -361 72t-113 282z" />
<glyph unicode="v" horiz-adv-x="1042" d="M58 900q0 56 58 56q40 0 66 -50l334 -780l346 782q22 48 66 48q58 0 58 -54q0 -16 -8 -34l-384 -868h-168l-360 868q-8 20 -8 32z" />
<glyph unicode="w" horiz-adv-x="1628" d="M64 896q0 50 58 50q46 0 66 -50l270 -780l290 770q20 48 70 48t66 -48l278 -770l280 780q18 50 66 50q58 0 58 -50q0 -12 -8 -36l-312 -860h-174l-256 728l-278 -728h-172l-294 860q-8 24 -8 36z" />
<glyph unicode="x" horiz-adv-x="1072" d="M84 32q0 32 22 54l342 374l-342 376q-22 26 -22 52q0 24 19 40t41 16q34 0 58 -24l336 -378l334 378q24 24 56 24q22 0 41 -16t19 -40q0 -26 -22 -52l-342 -376l342 -374q22 -22 22 -54q0 -22 -19 -38t-41 -16q-32 0 -56 24l-334 378l-336 -378q-24 -24 -58 -24 q-22 0 -41 16t-19 38z" />
<glyph unicode="y" horiz-adv-x="1296" d="M138 -176q0 80 62 80t62 -76q0 -66 21 -90t79 -24h578q52 0 67 17t15 73v308q-120 -112 -352 -112h-58q-248 0 -361 72t-113 282v506q0 76 60 76q64 0 64 -76v-502q0 -154 71 -194t279 -40h58q352 0 352 338v398q0 76 62 76t62 -76v-1024q0 -134 -40 -190t-152 -56h-606 q-66 0 -111 20t-65 56t-27 73t-7 85z" />
<glyph unicode="z" horiz-adv-x="1146" d="M118 0v138l720 660h-496q-64 0 -82 -32t-18 -112q0 -82 -64 -82q-60 0 -60 82q0 146 44 207t166 61h672v-144l-714 -654h530q66 0 84 33t18 111q0 82 62 82t62 -82q0 -144 -44 -206t-166 -62h-714z" />
<glyph unicode="{" horiz-adv-x="550" d="M78 620v28q42 22 94 67t52 85q0 32 -28 125t-28 131q0 108 19 175t61 97t85 39t115 9v-124q-108 0 -132 -29t-24 -167q0 -16 28 -110t28 -146q0 -80 -132 -166q132 -78 132 -162q0 -54 -28 -145t-28 -111q0 -140 24 -168t132 -28v-124q-72 0 -115 9t-85 39t-61 97 t-19 175q0 38 28 131t28 125q0 40 -49 81t-97 67z" />
<glyph unicode="|" horiz-adv-x="448" d="M162 58v1154q0 74 62 74t62 -74v-1154q0 -72 -64 -72q-60 0 -60 72z" />
<glyph unicode="}" horiz-adv-x="550" d="M102 20q108 0 132 28t24 168q0 20 -28 111t-28 145q0 84 132 162q-132 86 -132 166q0 52 28 146t28 110q0 138 -24 167t-132 29v124q72 0 115 -9t85 -39t61 -97t19 -175q0 -38 -28 -131t-28 -125q0 -40 52 -85t94 -67v-28q-48 -26 -97 -67t-49 -81q0 -32 28 -125t28 -131 q0 -108 -19 -175t-61 -97t-85 -39t-115 -9v124z" />
<glyph unicode="~" horiz-adv-x="862" d="M140 402q0 34 32 60l90 76q28 20 46 20q20 0 28 -4l188 -72q10 -4 16 -4t10 4l62 56q20 20 50 20q22 0 41 -16t19 -42q0 -34 -32 -60l-90 -76q-28 -20 -46 -20q-20 0 -28 4l-188 72q-10 4 -16 4t-10 -4l-62 -56q-20 -20 -50 -20q-22 0 -41 16t-19 42z" />
<glyph unicode="&#xa2;" horiz-adv-x="976" d="M98 596v84q0 192 86 274t252 94v182q0 76 64 76q60 0 60 -76v-180h94q66 0 110 -19t64 -56t27 -72t7 -85q0 -82 -60 -82q-64 0 -64 78q0 66 -20 89t-78 23h-80v-576h76q60 0 81 24t21 88q0 78 60 78q64 0 64 -82q0 -104 -43 -168t-169 -64h-90v-186q0 -74 -64 -74 q-60 0 -60 74v186q-170 12 -254 94t-84 276zM222 596q0 -138 47 -187t167 -57v572q-116 -8 -165 -58t-49 -186v-84z" />
<glyph unicode="&#xa3;" horiz-adv-x="1024" d="M132 48q0 12 2 18l76 870q10 114 44 192t90 114t113 50t131 14q148 0 232 -64t84 -240q0 -76 -64 -76q-60 0 -60 76q0 114 -46 147t-154 33q-116 0 -174 -47t-72 -199l-18 -188h58q74 0 74 -64q0 -60 -74 -60h-66l-48 -520h572q76 0 76 -64q0 -60 -76 -60h-646 q-54 0 -54 68z" />
<glyph unicode="&#xa5;" horiz-adv-x="1098" d="M64 1246q0 26 19 43t41 17q28 0 58 -40l368 -522l366 522q26 40 60 40q20 0 40 -17t20 -43q0 -22 -18 -50l-406 -584v-48h178q76 0 76 -64q0 -60 -76 -60h-178v-54h178q76 0 76 -64q0 -60 -76 -60h-178v-222q0 -74 -62 -74q-60 0 -60 74v222h-190q-74 0 -74 64 q0 60 74 60h190v54h-190q-74 0 -74 64q0 60 74 60h190v48l-408 584q-18 32 -18 50z" />
<glyph unicode="&#xa9;" horiz-adv-x="1244" d="M158 524v222q0 114 30 189t91 114t134 53t181 14h58q108 0 180 -14t134 -53t91 -114t29 -189v-222q0 -114 -29 -189t-91 -114t-134 -53t-180 -14h-58q-108 0 -181 14t-134 53t-91 114t-30 189zM282 524q0 -158 66 -202t246 -44h58q178 0 244 44t66 202v222q0 158 -66 202 t-244 44h-58q-180 0 -246 -44t-66 -202v-222zM412 596v78q0 86 58 132t142 46h100q64 0 92 -40t28 -86q0 -20 -16 -32t-36 -12q-36 0 -44 32l-8 32q-8 4 -20 4h-96q-46 0 -73 -21t-27 -55v-78q0 -34 27 -55t73 -21h96q18 0 24 8q0 2 2 14t4 21t13 17t29 8q20 0 36 -12 t16 -32q0 -46 -26 -86t-94 -40h-100q-84 0 -142 46t-58 132z" />
<glyph unicode="&#xad;" horiz-adv-x="932" d="M146 462q0 24 17 43t55 19h490q78 0 78 -66q0 -28 -23 -44t-55 -16h-490q-72 0 -72 64z" />
<glyph unicode="&#xae;" horiz-adv-x="1244" d="M158 524v222q0 114 30 189t91 114t134 53t181 14h58q108 0 180 -14t134 -53t91 -114t29 -189v-222q0 -114 -29 -189t-91 -114t-134 -53t-180 -14h-58q-108 0 -181 14t-134 53t-91 114t-30 189zM282 524q0 -158 66 -202t246 -44h58q178 0 244 44t66 202v222q0 158 -66 202 t-244 44h-58q-180 0 -246 -44t-66 -202v-222zM404 434v388q0 18 17 29t31 11h168q228 0 228 -140q0 -40 -23 -74t-65 -50q32 -34 63 -86t31 -78q0 -18 -16 -28t-32 -10q-46 0 -54 34q-4 22 -39 75t-77 81h-130v-152q0 -38 -50 -38q-26 0 -39 12t-13 26zM506 688h114 q76 0 101 7t25 27q0 24 -24 31t-102 7h-114v-72z" />
<glyph unicode="&#xb4;" horiz-adv-x="424" d="M48 1060q0 28 20 52l192 230q30 34 58 34q22 0 41 -17t19 -45t-20 -50l-192 -230q-30 -34 -58 -34q-20 0 -40 17t-20 43z" />
<glyph unicode="&#x2000;" horiz-adv-x="695" />
<glyph unicode="&#x2001;" horiz-adv-x="1390" />
<glyph unicode="&#x2002;" horiz-adv-x="695" />
<glyph unicode="&#x2003;" horiz-adv-x="1390" />
<glyph unicode="&#x2004;" horiz-adv-x="463" />
<glyph unicode="&#x2005;" horiz-adv-x="347" />
<glyph unicode="&#x2006;" horiz-adv-x="231" />
<glyph unicode="&#x2007;" horiz-adv-x="231" />
<glyph unicode="&#x2008;" horiz-adv-x="173" />
<glyph unicode="&#x2009;" horiz-adv-x="278" />
<glyph unicode="&#x200a;" horiz-adv-x="77" />
<glyph unicode="&#x2010;" horiz-adv-x="932" d="M146 462q0 24 17 43t55 19h490q78 0 78 -66q0 -28 -23 -44t-55 -16h-490q-72 0 -72 64z" />
<glyph unicode="&#x2011;" horiz-adv-x="932" d="M146 462q0 24 17 43t55 19h490q78 0 78 -66q0 -28 -23 -44t-55 -16h-490q-72 0 -72 64z" />
<glyph unicode="&#x2012;" horiz-adv-x="932" d="M146 462q0 24 17 43t55 19h490q78 0 78 -66q0 -28 -23 -44t-55 -16h-490q-72 0 -72 64z" />
<glyph unicode="&#x2013;" horiz-adv-x="1068" d="M146 462q0 24 17 43t55 19h626q78 0 78 -66q0 -26 -22 -43t-56 -17h-626q-72 0 -72 64z" />
<glyph unicode="&#x2014;" horiz-adv-x="1304" d="M146 462q0 24 17 43t55 19h860q78 0 78 -66q0 -26 -22 -43t-56 -17h-860q-72 0 -72 64z" />
<glyph unicode="&#x2018;" horiz-adv-x="416" d="M124 1112q0 98 56 179t96 81q48 0 48 -44q0 -14 -24 -70t-24 -146q0 -28 -22 -45t-58 -17q-72 0 -72 62z" />
<glyph unicode="&#x2019;" horiz-adv-x="416" d="M122 1094q0 14 24 70t24 146q0 28 22 45t58 17q72 0 72 -62q0 -98 -56 -179t-96 -81q-48 0 -48 44z" />
<glyph unicode="&#x201c;" horiz-adv-x="662" d="M124 1112q0 98 56 179t96 81q48 0 48 -44q0 -14 -24 -70t-24 -146q0 -28 -22 -45t-58 -17q-72 0 -72 62zM370 1112q0 98 56 179t96 81q48 0 48 -44q0 -14 -24 -70t-24 -146q0 -28 -22 -45t-58 -17q-72 0 -72 62z" />
<glyph unicode="&#x201d;" horiz-adv-x="662" d="M122 1094q0 14 24 70t24 146q0 28 22 45t58 17q72 0 72 -62q0 -98 -56 -179t-96 -81q-48 0 -48 44zM368 1094q0 14 24 70t24 146q0 28 22 45t58 17q72 0 72 -62q0 -98 -56 -179t-96 -81q-48 0 -48 44z" />
<glyph unicode="&#x2022;" horiz-adv-x="800" d="M110 516q0 122 84 206t206 84t206 -84t84 -206t-84 -206t-206 -84t-206 84t-84 206z" />
<glyph unicode="&#x2026;" horiz-adv-x="1090" d="M128 58q0 38 37 65t75 27q36 0 74 -27t38 -65t-37 -65t-75 -27q-40 0 -76 26t-36 66zM434 58q0 38 37 65t75 27q36 0 74 -27t38 -65t-37 -65t-75 -27q-40 0 -76 26t-36 66zM740 58q0 38 37 65t75 27q36 0 74 -27t38 -65t-37 -65t-75 -27q-40 0 -76 26t-36 66z" />
<glyph unicode="&#x202f;" horiz-adv-x="278" />
<glyph unicode="&#x205f;" horiz-adv-x="347" />
<glyph unicode="&#x20ac;" horiz-adv-x="1142" d="M88 520q0 62 74 62h52v110h-52q-74 0 -74 66q0 60 74 60h52q0 226 130 350t336 124h126q126 0 168 -64t42 -170q0 -80 -62 -80t-62 76q0 66 -21 90t-79 24h-112q-164 0 -253 -91t-89 -259h378q78 0 78 -64q0 -28 -22 -45t-56 -17h-378v-110h378q78 0 78 -66 q0 -26 -22 -43t-56 -17h-378q0 -192 98 -272t244 -80h112q58 0 79 25t21 89q0 76 62 76t62 -82q0 -104 -42 -168t-168 -64h-126q-206 0 -336 125t-130 351h-52q-74 0 -74 64z" />
<glyph unicode="&#x2122;" horiz-adv-x="1326" d="M106 1314q0 62 76 62h296q76 0 76 -64q0 -60 -76 -60h-86v-384q0 -74 -62 -74t-62 74v384h-86q-76 0 -76 62zM582 872v436q0 82 64 82q50 0 72 -46l154 -344l154 346q24 44 72 44q64 0 64 -82v-434q0 -80 -62 -80t-62 80v228l-124 -286q-22 -22 -40 -22q-32 0 -46 24 l-122 284v-230q0 -78 -62 -78t-62 78z" />
<glyph unicode="&#xe000;" horiz-adv-x="945" d="M0 945h945v-945h-945v945z" />
</font>
</defs>
</svg>
